Слуги дьявола на чертовой мельнице (Александр Лейманис) [1972, Комедия, приключения, DVDRip]

Ответить на тему
 

regent.tmz ®

Стаж: 1 год 10 месяцев

Сообщений: 25

Симпатии: 36

Слуги дьявола на чертовой мельнице
Жанр: Комедия, приключения
Год выпуска: 1972
Продолжительность: 01:26:54
Режиссёр: Александр Лейманис
В ролях: Артур Экис, Лолита Цауке, Харальд Ритенбергс, Ольга Дреге, Байба Индриксоне, Эдуард Павулс, Карл Себрис, Янис Грантыньш, Эльза Радзиня, Ингрид Андринь, Волдемар Акуратерс, Валентинс Скулме, Артур Димитерс, Астрида Кайриша, Эдгар Зиле, Люция Баумане, Эвалдс Валтерс
Описание: Продолжение фильма Рижской киностудии - "Слуги дьявола". Трое неразлучных друзей, прозванных "Слугами дьявола", выкрадывают ключи от Риги, которые должны были быть переданы шведскому королю в знак полной капитуляции..
Качество видео: DVDRip
Формат видео: AVI
Видео: 704x384, 1798 кб/c
Аудио: AC3. 5 ch, 448 кб/c

MediaInfo

General
Complete name : M:\С\Слуги дьявола на ч\Slugi.dyavola.na.chertovoj.melnice.1972.DVDRip-ExKinoRay.avi
Format : AVI
Format/Info : Audio Video Interleave
File size : 1.37 GiB
Duration : 1h 26mn
Overall bit rate : 2 253 Kbps
Writing application : VirtualDubMod 1.5.10.3 | www.virtualdub-fr.org || (build 2550/release)
Writing library : VirtualDubMod build 2550/release
Video
ID : 0
Format : MPEG-4 Visual
Format profile : Advanced [email protected]
Format settings, BVOP : 1
Format settings, QPel : No
Format settings, GMC : No warppoints
Format settings, Matrix : Default (H.263)
Codec ID : XVID
Codec ID/Hint : XviD
Duration : 1h 26mn
Bit rate : 1 795 Kbps
Width : 704 pixels
Height : 384 pixels
Display aspect ratio : 16:9
Frame rate : 25.000 fps
Color space : YUV
Chroma subsampling : 4:2:0
Bit depth : 8 bits
Scan type : Progressive
Compression mode : Lossy
Bits/(Pixel*Frame) : 0.266
Stream size : 1.09 GiB (80%)
Writing library : XviD 1.2.1 (UTC 2008-12-04)
Audio
ID : 1
Format : AC-3
Format/Info : Audio Coding 3
Mode extension : CM (complete main)
Codec ID : 2000
Duration : 1h 26mn
Bit rate mode : Constant
Bit rate : 448 Kbps
Channel(s) : 5 channels
Channel positions : Front: L C R, Side: L R
Sampling rate : 48.0 KHz
Bit depth : 16 bits
Compression mode : Lossy
Stream size : 278 MiB (20%)
Alignment : Split accross interleaves
Interleave, duration : 40 ms (1.00 video frame)
Interleave, preload duration : 500 m

Скриншот c названием фильма

]

Скриншоты




Создавать темы 26-Дек-2015 17:25

[Профиль]  [ЛС] 
Показать сообщения:    
Ответить на тему

Текущее время: 18-Окт 10:45

Часовой пояс: UTC + 5



Вы не можете начинать темы
Вы не можете отвечать на сообщения
Вы не можете редактировать свои сообщения
Вы не можете удалять свои сообщения
Вы не можете голосовать в опросах
Вы не можете прикреплять файлы к сообщениям
Вы не можете скачивать файлы