Нулевая терпимость / Zero Tolerance (Вич Каосаянанда) [2015, Таиланд, боевик, триллер, криминал, HDRip] (DVO) (Original Eng)

Ответить на тему
 

Black.virus ®

Стаж: 1 год 8 месяцев

Сообщений: 4

Симпатии: 9

Нулевая терпимость /Зеро Толеранце
Страна: Таиланд
Жанр: боевик, триллер, криминал
Год выпуска: 2015
Продолжительность: 01:29-Перевод: Профессиональный (двухголосый закадровый)
Cубтитры: нет
Оригинальная аудиодорожка: английский-Режиссер: Вич Каосаянанда-В ролях: Дастин Нгуен
Скотт Эдкинс
Сахайак Бунсанакит
Гэри Дэниелс
Принья Интачай
Кейн Косуги
Ammy Chanicha
Стивен Кларк
Натали Лоренс
Yuhkoh Matsuguchi-Описание: Два бывших военизированных сотрудника, Джонни и его полицейский друг детектив Питер, приезжают в Бангкок, чтобы найти убийц красивой дочери Джонни Анджел…-Качество видео: HDRip
Формат видео: AVI-Видео: MPEG-4 Visual
Аудио: Идентификатор : 1 Формат : AC-3 Формат/Информация : Audio Coding 3 Расширение режима : CM (complete main) Параметр Endianness формата : Big Идентификатор кодека : 2000 Продолжительность : 1 ч. 2 ag

MediaInfo

Идентификатор : 0
Формат : MPEG-4 Visual
Профиль формата : Advanced [email protected]
Параметр BVOP формата : 1
Параметр QPel формата : Нет
Параметр GMC формата : Без точки перехода
Параметр матрицы формата : Выборочная
Идентификатор кодека : XVID
Идентификатор кодека/Подсказка : XviD
Продолжительность : 1 ч. 29 м.
Битрейт : 1921 Кбит/сек
Ширина : 720 пикселей
Высота : 400 пикселей
Соотношение сторон : 16:9
Частота кадров : 24,000 кадра/сек
Цветовое пространство : YUV
Субдискретизация насыщенности : 4:2:0
Битовая глубина : 8 бит
Тип развёртки : Прогрессивная
Метод сжатия : С потерями
Бит/(Пиксели*Кадры) : 0.278
Размер потока : 1,21 Гбайт (83%)
Библиотека кодирования : XviD 73
Идентификатор : 1
Формат : AC-3
Формат/Информация : Audio Coding 3
Расширение режима : CM (complete main)
Параметр Endianness формата : Big
Идентификатор кодека : 2000
Продолжительность : 1 ч. 29 м.
Вид битрейта : Постоянный
Битрейт : 192 Кбит/сек
Каналы : 2 канала
Расположение каналов : Front: L R
Частота : 48,0 КГц
Битовая глубина : 16 бит
Метод сжатия : С потерями
Размер потока : 123 Мбайт (8%)
Выравнивание : Разделение по промежуткам
Продолжительность промежутка : 42 мс. (1,00 видеокадр)
Время предзагрузки промежутка : 500 мс.
aa

Скриншоты





Последний раз редактировалось: Black.virus (2015-12-29 23:25), всего редактировалось 2 раз(а)

Создавать темы 26-Дек-2015 18:04

[Профиль]  [ЛС] 

Каротажник

Стаж: 3 года 11 месяцев

Сообщений: 195

Симпатии: 211

Black.virus, залейте Медиа инфо

Создавать темы 26-Дек-2015 21:08

[Профиль]  [ЛС] 

Топик был перенесен из форума Фильмы за 2015 в форум Азиатские фильмы
Каротажник

Создавать темы 27-Дек-2015 10:40

 

jack2012

Стаж: 3 года 7 месяцев

Сообщений: 10

Симпатии: 3

кто сказал что она красивая?

Создавать темы 28-Дек-2015 10:20

[Профиль]  [ЛС] 
Показать сообщения:    
Ответить на тему

Текущее время: 21-Сен 08:30

Часовой пояс: UTC + 5



Вы не можете начинать темы
Вы не можете отвечать на сообщения
Вы не можете редактировать свои сообщения
Вы не можете удалять свои сообщения
Вы не можете голосовать в опросах
Вы не можете прикреплять файлы к сообщениям
Вы не можете скачивать файлы