Скауты против зомби / Scouts Guide to the Zombie Apocalypse (Кристофер Лэндон) [2015., ужасы, комедия, HDRip][Чистый звук]

Ответить на тему
 

DXgame ®

Стаж: 5 лет

Сообщений: 128

Симпатии: 144

Скауты против зомби / Scouts Guide to the Zombie Apocalypse
Год выпуска: 2015
Страна: США
Жанр: ужасы, комедия
Продолжительность: 01:26:14
Перевод: Дублированный [Чистый звук]-Режиссер: Кристофер Лэндон-В ролях: Тай Шеридан, Логан Миллер, Джои Морган, Сара Дюмон, Дэвид Кокнер, Холстон Сейдж, Клорис Личмен, Ники Косс, Хирам А. Мюррэй, Лукас Гейдж-Описание:
Встречайте самую нелепую команду героев в мире - трое закадычных друзей-бойскаутов и безбашенная официантка. Именно им выпадает миссия остановить зомбиапокалипсис, который уже погрузил в хаос захолустный сонный городок и грозит охватить всю планету. Последняя надежда человечества - скаутские приемы и умения. К борьбе с зомби будь готов! Всегда готов!-Качество: HDRip
Формат: AVI
Видео кодек: XviD
Аудио кодек: AC3
Видео данные: XviD, 1971 Кбит/с, 720x304
Аудио данные: AC3, 2 ch, 128 Кбит/с

MI

General
Format                         : AVI
Format/Info                    : Audio Video Interleave
File size                      : 1.37 GiB
Duration                       : 1h 33mn
Overall bit rate               : 2 109 Kbps
Movie name                     : 7cau3i.2015.D.HDRip.1400MB.ELEKTRI4KA.uniongang.tv
Writing application            : VirtualDubMod 1.5.10.3 | www.virtualdub-fr.org || (build 2550/release)
Copyright                      : UNIONGANG&RUSTORRENTS
Video
ID                             : 0
Format                         : MPEG-4 Visual
Format profile                 : Advanced [email protected]
Format settings, BVOP          : Yes
Format settings, QPel          : No
Format settings, GMC           : No warppoints
Format settings, Matrix        : Default (MPEG)
Codec ID                       : XVID
Codec ID/Hint                  : XviD
Duration                       : 1h 33mn
Bit rate                       : 1 972 Kbps
Width                          : 720 pixels
Height                         : 304 pixels
Display aspect ratio           : 2.35:1
Frame rate                     : 23.976 fps
Color space                    : YUV
Chroma subsampling             : 4:2:0
Bit depth                      : 8 bits
Scan type                      : Progressive
Compression mode               : Lossy
Bits/(Pixel*Frame)             : 0.376
Stream size                    : 1.28 GiB (93%)
Writing library                : XviD 1.2.1 (UTC 2008-12-04)
Audio
ID                             : 1
Format                         : AC-3
Format/Info                    : Audio Coding 3
Mode extension                 : CM (complete main)
Format settings, Endianness    : Big
Codec ID                       : 2000
Duration                       : 1h 33mn
Bit rate mode                  : Constant
Bit rate                       : 128 Kbps
Channel(s)                     : 2 channels
Channel positions              : Front: L R
Sampling rate                  : 48.0 KHz
Bit depth                      : 16 bits
Compression mode               : Lossy
Stream size                    : 85.2 MiB (6%)
Alignment                      : Split accross interleaves
Interleave, duration           : 42 ms (1.00 video frame)
Interleave, preload duration   : 500 ms

Скриншоты



Создавать темы 27-Дек-2015 15:57

[Профиль]  [ЛС] 

.BaTMaN.

Стаж: 2 года 6 месяцев

Сообщений: 3

Симпатии: 1

Фильм класс поржал)

Создавать темы 31-Дек-2015 16:37

[Профиль]  [ЛС] 

ulkiora5

Стаж: 4 года 4 месяца

Сообщений: 53

Симпатии: 25

момент с дедом и его инструментом, я аж поперхнулся

Создавать темы 11-Янв-2016 14:58

[Профиль]  [ЛС] 
Показать сообщения:    
Ответить на тему

Текущее время: 18-Окт 10:48

Часовой пояс: UTC + 5



Вы не можете начинать темы
Вы не можете отвечать на сообщения
Вы не можете редактировать свои сообщения
Вы не можете удалять свои сообщения
Вы не можете голосовать в опросах
Вы не можете прикреплять файлы к сообщениям
Вы не можете скачивать файлы