Три тополя на Плющихе (Татьяна Лиознова) [1967, Мелодрама, BDRip] цветная версия

Ответить на тему
 

odamcha ®

Стаж: 7 лет 4 месяца

Сообщений: 137

Симпатии: 13

Три тополя на Плющихе [Цветная версия] Жанр: Мелодрама
Год выпуска: 1967
Продолжительность: 01:18:24
Режиссёр: Татьяна Лиознова
В ролях: Татьяна Доронина, Олег Ефремов, Вячеслав Шалевич, Алевтина Румянцева, Николай Смирнов, Валентина Телегина, Виктор Сергачев, Хикмат Латыпов, Валентин Печников, А. Волгина, Николай Юдин, Николай Гладков, Алексей Миронов
Описание: Какие они минуты счастья? Конечно, разные. Но есть среди них и такие: сидит в такси женщина и поет. Вернее, старательно, не очень умело выводит пронзительную мелодию: «… Опустела без тебя земля, как мне несколько часов прожить.»
Странное иногда случается в жизни. Встретились два человека — симпатичная замужняя деревенская женщина, мать двоих детей, приехавшая в Москву продавать домашнюю ветчину, и московский шофер, человек немолодой и далеко несловоохотливый...
Качество видео: BDRip
Формат видео: AVI
Видео: 720x304 (2.37:1), 24 fps, XviD build 50 ~2199 kbps avg, 0.42 bit/pixel
Аудио: 48 kHz, AC3 Dolby Digital, 3/2 (L,C,R,l,r) + LFE ch, ~448 kbps

MediaInfo

Format : AVI
Format/Info : Audio Video Interleave
File size : 1.45 GiB
Duration : 1h 18mn
Overall bit rate : 2 657 Kbps
Movie name : Три тополя на Плющихе (1967)
Director : MECHANICAL ENGINEER (Blu-Ray)
Writing application : VirtualDubMod 1.5.10.3 | www.virtualdub-fr.org || (build 2550/release)
Copyright : HQ-ViDEO (www.hq-video.org)
Comment : 12.05.2011
Video
ID : 0
Format : MPEG-4 Visual
Format profile : Advanced [email protected]
Format settings, BVOP : 1
Format settings, QPel : No
Format settings, GMC : No warppoints
Format settings, Matrix : Custom
Codec ID : XVID
Codec ID/Hint : XviD
Duration : 1h 18mn
Bit rate : 2 199 Kbps
Width : 720 pixels
Height : 304 pixels
Display aspect ratio : 2.35:1
Frame rate : 24.000 fps
Color space : YUV
Chroma subsampling : 4:2:0
Bit depth : 8 bits
Scan type : Progressive
Compression mode : Lossy
Bits/(Pixel*Frame) : 0.419
Stream size : 1.20 GiB (83%)
Writing library : XviD 1.2.1 (UTC 2008-12-04)
Audio
ID : 1
Format : AC-3
Format/Info : Audio Coding 3
Mode extension : CM (complete main)
Format settings, Endianness : Big
Codec ID : 2000
Duration : 1h 18mn
Bit rate mode : Constant
Bit rate : 448 Kbps
Channel count : 6 channels
Channel positions : Front: L C R, Side: L R, LFE
Sampling rate : 48.0 KHz
Bit depth : 16 bits
Compression mode : Lossy
Stream size : 251 MiB (17%)
Alignment : Split accross interleaves
Interleave, duration : 42 ms (1.00 video frame)
Interleave, preload duration : 500 ms

Скриншоты

Источник: rutracker.org

Создавать темы 27-Дек-2015 22:00

[Профиль]  [ЛС] 

Тимур Турабаев

Стаж: 5 лет 3 месяца

Сообщений: 44

Симпатии: 1

классный фильм... суууупер я давно ждал чтоб он появился...

Создавать темы 28-Дек-2015 22:42

[Профиль]  [ЛС] 

Тимур Турабаев

Стаж: 5 лет 3 месяца

Сообщений: 44

Симпатии: 1

А в FullHD или хотя бы в HD нету?

Создавать темы 28-Дек-2015 22:44

[Профиль]  [ЛС] 

Тимур Турабаев

Стаж: 5 лет 3 месяца

Сообщений: 44

Симпатии: 1

Когда раздача?

Создавать темы 29-Дек-2015 22:57

[Профиль]  [ЛС] 

odamcha ®

Стаж: 7 лет 4 месяца

Сообщений: 137

Симпатии: 13

964023А в FullHD или хотя бы в HD нету?
Выложил то что есть

Создавать темы 31-Дек-2015 01:51

[Профиль]  [ЛС] 
Показать сообщения:    
Ответить на тему

Текущее время: 16-Авг 18:16

Часовой пояс: UTC + 5



Вы не можете начинать темы
Вы не можете отвечать на сообщения
Вы не можете редактировать свои сообщения
Вы не можете удалять свои сообщения
Вы не можете голосовать в опросах
Вы не можете прикреплять файлы к сообщениям
Вы не можете скачивать файлы