Отстранение / Suspension (Джеффри Скотт Ландо) [2015, Канада, триллер, DVDRip] (DVO : [datynet])

Ответить на тему
 

lucky999 ®

Стаж: 1 год 11 месяцев

Сообщений: 32

Симпатии: 43

--Отстранение / Suspension-- Страна: Канада
Жанр: триллер
Год выпуска: 2015
Продолжительность: 01:27:47--Перевод: Любительский одноголосое [datynet]
Режиссер: Джеффри Скотт Ландо
В ролях: Сэйдж Броклбэнк, Джоанна Ньюмарк, Тейлор Расселл, Дункан Оллереншоу, Коннор Филдинг, Оуэн Филдинг, Кортни Пейдж, Крэйг Марч, Кайли Буш
Описание: Эмили - гимназистка со склонностью к рисованию. Но рисует она страшные картинки - сцены насилия и убийств. И причина для этого есть: однажды Том, её отец, устроил кровавую резню, и теперь он отбывает срок в психиатрической лечебнице. Однажды ночью Том сбегает из клиники и устраивает кровавый террор Эмили и её школьным друзьям.
Доп. информация:
IMDB рейтинг: 0.0/10
КиноПоиск рейтинг: 0.0/10-Качество видео: DVDRip
Формат видео: AVI-Видео: XviD, 1580 Kbps, 720x304
Аудио: Russian: AC3, 192 Kbps, 2 ch
Аудио 1: English: AC3, 448 Kbps, 6 ch

MediaInfo

General
Complete name : E:\torrent\0tctranenie.L1.DVDRip.avi
Format : AVI
Format/Info : Audio Video Interleave
File size : 1.37 GiB
Duration : 1h 27mn
Overall bit rate : 2 234 Kbps
Writing application : VirtualDubMod 1.5.10.3 | www.virtualdub-fr.org || (build 2550/release)
Writing library : VirtualDubMod build 2550/release
Video
ID : 0
Format : MPEG-4 Visual
Format profile : Advanced [email protected]
Format settings, BVOP : 2
Format settings, QPel : No
Format settings, GMC : No warppoints
Format settings, Matrix : Default (MPEG)
Codec ID : XVID
Codec ID/Hint : XviD
Duration : 1h 27mn
Bit rate : 1 580 Kbps
Width : 720 pixels
Height : 304 pixels
Display aspect ratio : 2.35:1
Frame rate : 23.976 fps
Color space : YUV
Chroma subsampling : 4:2:0
Bit depth : 8 bits
Scan type : Progressive
Compression mode : Lossy
Bits/(Pixel*Frame) : 0.301
Stream size : 992 MiB (71%)
Writing library : XviD 1.2.1 (UTC 2008-12-04)
Audio #1
ID : 1
Format : AC-3
Format/Info : Audio Coding 3
Mode extension : CM (complete main)
Format settings, Endianness : Big
Codec ID : 2000
Duration : 1h 27mn
Bit rate mode : Constant
Bit rate : 192 Kbps
Channel(s) : 2 channels
Channel positions : Front: L R
Sampling rate : 44.1 KHz
Compression mode : Lossy
Stream size : 121 MiB (9%)
Alignment : Split accross interleaves
Interleave, duration : 42 ms (1.00 video frame)
Interleave, preload duration : 500 ms
Audio #2
ID : 2
Format : AC-3
Format/Info : Audio Coding 3
Mode extension : CM (complete main)
Format settings, Endianness : Big
Codec ID : 2000
Duration : 1h 27mn
Bit rate mode : Constant
Bit rate : 448 Kbps
Channel(s) : 6 channels
Channel positions : Front: L C R, Side: L R, LFE
Sampling rate : 48.0 KHz
Compression mode : Lossy
Stream size : 281 MiB (20%)
Alignment : Split accross interleaves
Interleave, duration : 42 ms (1.00 video frame)
Interleave, preload duration : 500 ms

Скриншоты



Создавать темы 28-Дек-2015 00:35

[Профиль]  [ЛС] 
Показать сообщения:    
Ответить на тему

Текущее время: 17-Авг 16:36

Часовой пояс: UTC + 5



Вы не можете начинать темы
Вы не можете отвечать на сообщения
Вы не можете редактировать свои сообщения
Вы не можете удалять свои сообщения
Вы не можете голосовать в опросах
Вы не можете прикреплять файлы к сообщениям
Вы не можете скачивать файлы