Раз героем мне не стать - самое время работу искать! OVA / YuShibu [RUS] [OVA] [Без хардсаба] [720p] [HDRip] [комедия] [AniDub]

Ответить на тему
 

maksimus_1712 ®

Стаж: 4 года 2 месяца

Сообщений: 122

Симпатии: 68

Раз героем мне не стать - самое время работу искать! OVA/YuShibu OVA-Год: 2013
Жанр: комедия
Страна: Япония
Количество серий: 1
Дата выпуска: 05.10.2013
Режиссер: Ёсимото Киндзи
Автор оригинала / Сценарист: Сакё Дзюн
Озвучивание: Ancord
Перевод: FooBoo
Студия:
Описание: Рауль Чейзер с самых пеленок мечтал стать героем и намылить попу Владыке Тьмы. Собрал команду единомышленников, прокачался...и тут перед самым походом на цель всей жизни Владыку Тьмы выносит кто-то другой.
Жизнь кончена, смысл ее утерян. И что теперь делать?
Ясен пень чтобы прокормить себя пора искать работу.
И вот в один прекрасный денек к ним на работу в магический супермаркет приходит устраиваться "Человек" с очень "СТРАННЫМ" резюме.
World Art-Качество: HDTVRip
Формат: MP4
Видео: 1280x720, 23.976fps, 985kbps, 8bit
Аудио: AAC, 48000Hz, 192kbps-

MediaInfo

General
Complete name                  : [AniDub]_YuShibu_[OVA]_[720p_x264_Aac]_[Ancord].mp4
Format                         : MPEG-4
Format profile                 : Base Media
Codec ID                       : isom
File size                      : 212 MiB
Duration                       : 25mn 4s
Overall bit rate mode          : Variable
Overall bit rate               : 1 182 Kbps
Encoded date                   : UTC 2014-03-13 17:50:05
Tagged date                    : UTC 2014-03-13 17:50:05
Writing application            : Yamb 2.1.0.0 [http://yamb.unite-video.com]
Video
ID                             : 1
Format                         : AVC
Format/Info                    : Advanced Video Codec
Format profile                 : [email protected]
Format settings, CABAC         : Yes
Format settings, ReFrames      : 9 frames
Codec ID                       : avc1
Codec ID/Info                  : Advanced Video Coding
Duration                       : 25mn 4s
Bit rate                       : 984 Kbps
Maximum bit rate               : 9 302 Kbps
Width                          : 1 280 pixels
Height                         : 720 pixels
Display aspect ratio           : 16:9
Frame rate mode                : Constant
Frame rate                     : 23.976 fps
Color space                    : YUV
Chroma subsampling             : 4:2:0
Bit depth                      : 8 bits
Scan type                      : Progressive
Bits/(Pixel*Frame)             : 0.045
Stream size                    : 177 MiB (83%)
Title                          : Ì 
Writing library                : x264 core 133 r2334 a3ac64b
Encoding settings              : cabac=1 / ref=9 / deblock=1:-1:-1 / analyse=0x3:0x133 / me=umh / subme=11 / psy=1 / psy_rd=0.50:0.20 / mixed_ref=1 / me_range=48 / chroma_me=1 / trellis=2 / 8x8dct=1 / cqm=2 / deadzone=21,11 / fast_pskip=1 / chroma_qp_offset=-3 / threads=18 / lookahead_threads=2 / sliced_threads=0 / nr=0 / decimate=1 / interlaced=0 / bluray_compat=0 / constrained_intra=0 / bframes=6 / b_pyramid=2 / b_adapt=2 / b_bias=0 / direct=3 / weightb=1 / open_gop=0 / weightp=2 / keyint=300 / keyint_min=1 / scenecut=40 / intra_refresh=0 / rc_lookahead=60 / rc=2pass / mbtree=1 / bitrate=984 / ratetol=1.0 / qcomp=0.70 / qpmin=0 / qpmax=40 / qpstep=12 / cplxblur=20.0 / qblur=0.5 / ip_ratio=1.40 / aq=2:0.70
Language                       : Russian
Encoded date                   : UTC 2014-03-13 17:50:05
Tagged date                    : UTC 2014-03-13 17:50:10
Audio
ID                             : 2
Format                         : AAC
Format/Info                    : Advanced Audio Codec
Format profile                 : LC
Codec ID                       : 40
Duration                       : 25mn 4s
Bit rate mode                  : Variable
Bit rate                       : 192 Kbps
Maximum bit rate               : 196 Kbps
Channel(s)                     : 2 channels
Channel positions              : Front: L R
Sampling rate                  : 48.0 KHz
Compression mode               : Lossy
Stream size                    : 34.5 MiB (16%)
Language                       : English
Encoded date                   : UTC 2014-03-13 17:50:09
Tagged date                    : UTC 2014-03-13 17:50:10

Скриншоты



Последний раз редактировалось: maksimus_1712 (2015-12-28 22:59), всего редактировалось 1 раз

Создавать темы 28-Дек-2015 07:01

[Профиль]  [ЛС] 
Показать сообщения:    
Ответить на тему

Текущее время: 21-Окт 17:26

Часовой пояс: UTC + 5



Вы не можете начинать темы
Вы не можете отвечать на сообщения
Вы не можете редактировать свои сообщения
Вы не можете удалять свои сообщения
Вы не можете голосовать в опросах
Вы не можете прикреплять файлы к сообщениям
Вы не можете скачивать файлы