Ублюдок / Bastard (Пауэлл Робинсон, Патрик Роберт Янг) [2015 г., ужасы, DVDRip]

Ответить на тему
 

Azamchikbest ®

Стаж: 2 года 2 месяца

Сообщений: 19

Симпатии: 34

Ублюдок-Bastard- Год выпуска: 2015
Страна: США
Жанр: ужасы
Продолжительность: 01:21:20
Перевод: Любительский (одноголосый) Хихикающий доктор -Режиссер: Пауэлл Робинсон, Патрик Роберт Янг-В ролях: Ребека Кеннеди, Эллис Грир, Дэн Крид, Уилл Tranfo, Тоня Кэй, Берт Калвер, Райан Шус, Надин Арлин, Мика Фицджералд, Брайан Фойстер-Описание: Несколько человек со своими скелетами в шкафу пересекаются в гостинице, находящейся на скале, и становятся жертвами убийцы, скрывающегося за маской ребенка.-Качество: DVDRip
Формат: AVI-Видео кодек: XviD
Аудио кодек: MP3-Видео: Xvid, 2257 Kbps, 720x304
Аудио: MP3, 2 ch, 128 kbps

MediaInfo

General
Complete name : D:\Bastard.2015.DVDRip.avi
Format : AVI
Format/Info : Audio Video Interleave
Format profile : OpenDML
File size : 1.36 GiB
Duration : 1h 21mn
Overall bit rate : 2 400 Kbps
Writing application : XviD4PSP 6.0 / 54.29.105
Video
ID : 0
Format : xvid
Codec ID : xvid
Duration : 1h 21mn
Bit rate : 2 257 Kbps
Width : 720 pixels
Height : 304 pixels
Display aspect ratio : 2.35:1
Frame rate : 25.000 fps
Bits/(Pixel*Frame) : 0.412
Stream size : 1.28 GiB (94%)
Audio
ID : 1
Format : MPEG Audio
Format version : Version 1
Format profile : Layer 3
Mode : Joint stereo
Mode extension : MS Stereo
Codec ID : 55
Codec ID/Hint : MP3
Duration : 1h 21mn
Bit rate mode : Constant
Bit rate : 128 Kbps
Channel(s) : 2 channels
Sampling rate : 48.0 KHz
Compression mode : Lossy
Stream size : 74.5 MiB (5%)
Alignment : Aligned on interleaves
Interleave, duration : 24 ms (0.60 video frame)
Writing library : LAME3.99r
Encoding settings : -m j -V 4 -q 3 -lowpass 17 -b 128

Скриншоты



Создавать темы 28-Дек-2015 11:07

[Профиль]  [ЛС] 

sanjar.7474

Стаж: 5 лет 4 месяца

Сообщений: 8

Azamchikbest, Azamchikbest,

Создавать темы 29-Дек-2015 14:19

[Профиль]  [ЛС] 
Показать сообщения:    
Ответить на тему

Текущее время: 19-Авг 12:19

Часовой пояс: UTC + 5



Вы не можете начинать темы
Вы не можете отвечать на сообщения
Вы не можете редактировать свои сообщения
Вы не можете удалять свои сообщения
Вы не можете голосовать в опросах
Вы не можете прикреплять файлы к сообщениям
Вы не можете скачивать файлы