Yuki Kajiura LIVE 2008.07.31[2008, Япония, Jpop, Neoclassical, DVDRip]

Ответить на тему
 

Alex1998 ®

Стаж: 4 года 3 месяца

Сообщений: 7

Симпатии: 2

Yuki Kajiura LIVE 2008.07.31
Страна: Япония
Жанр: Jpop, Neoclassical
Год выпуска: 2008
Продолжительность: 02:12:59 + 00:49:47
Источник: Rutracker.org
Информация: Первый концерт Yuki Kajiura LIVE VOL#2, который состоялся 31 июля и был записан на DVD, также присутствует специальное интервью с Юки и её вокалистками.
Музыка: Yuki Kajiura
Лирика: Yuki Kajiura
Аранжировки: Yuki Kajiura
Вокал: FictionJunction (KAORI, KEIKO, WAKANA, Yuriko Kaida)
Приглашённый вокал: Eri Itou
Музыканты: Yuki Kajiura (клавишные), Koichi Korenaga (гитара), Takahashi “Jr” Tomoharu (бас гитара), Kyoichi Sato (барабаны), Hitoshi Konno (скрипка)
Манипулятор: Oohira Yoshio
Качество видео: DVDRip
Формат видео: MKV

Тех. данные

Yuki Kajiura LIVE 2008.07.31

Контейнер: Matroska at 3 143
Видео: AVC at 2 441 Kbps, 720x480 (анаморф 848x480) (1.767) at 29.970 fps, Bits/(Pixel*Frame) 0.200
Аудио: AC-3 at 640 Kbps, 2 channels, 48.0 KHz
Субтитры: ASS, русские, софтсаб [Перевод песен: Phantomus, mystery_cat, Smeyushechka, Yukina, Nia; Тайминг и редактура: Phantomus]

Yuki Kajiura LIVE 2008.07.31 - Special Interview

Контейнер: Matroska at 2 450 Kbps
Видео: AVC at 1 953 Kbps, 720x480 (анаморф 848x480) (1.767) at 29.970 fps, Bits/(Pixel*Frame) 0.160
Аудио: AC-3 at 448 Kbps, 2 channels, 48.0 KHz
Субтитры: ASS, русские, софтсаб (Перевод: Phantomus; Тайминг и редактура: Varete)

MediaInfo

Yuki Kajiura LIVE 2008.07.31

General
Unique ID : 193394071149104536933712084935779612030 (0x917E57E07F381B8C9C8470ED4D80F57E)
Complete name : I:\2008.12.24 - Yuki Kajiura LIVE 2008.07.31\Yuki Kajiura LIVE 2008.07.31.mkv
Format : Matroska
Format version : Version 1
File size : 2.92 GiB
Duration : 2h 12mn
Overall bit rate : 3 143 Kbps
Encoded date : UTC 2014-05-29 20:25:43
Writing application : mkvmerge v2.4.2 ('Oh My God') built on Jan 18 2009 17:30:28
Writing library : libebml v0.7.7 + libmatroska v0.8.1
Video
ID : 1
Format : AVC
Format/Info : Advanced Video Codec
Format profile : [email protected]
Format settings, CABAC : Yes
Format settings, ReFrames : 4 frames
Codec ID : V_MPEG4/ISO/AVC
Duration : 2h 12mn
Bit rate : 2 500 Kbps
Width : 848 pixels
Height : 480 pixels
Display aspect ratio : 16:9
Frame rate mode : Constant
Frame rate : 29.970 fps
Color space : YUV
Chroma subsampling : 4:2:0
Bit depth : 8 bits
Scan type : Progressive
Bits/(Pixel*Frame) : 0.205
Stream size : 2.27 GiB (78%)
Writing library : x264 core 92 r1510 33d382a
Encoding settings : cabac=1 / ref=3 / deblock=1:0:0 / analyse=0x3:0x113 / me=hex / subme=7 / psy=1 / psy_rd=1.00:0.00 / mixed_ref=1 / me_range=16 / chroma_me=1 / trellis=1 / 8x8dct=1 / cqm=0 / deadzone=21,11 / fast_pskip=1 / chroma_qp_offset=-2 / threads=3 / sliced_threads=0 / nr=0 / decimate=1 / interlaced=0 / constrained_intra=0 / bframes=3 / b_pyramid=2 / b_adapt=1 / b_bias=0 / direct=3 / wpredb=1 / wpredp=2 / keyint=250 / keyint_min=25 / scenecut=40 / intra_refresh=0 / rc_lookahead=40 / rc=2pass / mbtree=1 / bitrate=2500 / ratetol=1.0 / qcomp=0.60 / qpmin=10 / qpmax=51 / qpstep=4 / cplxblur=20.0 / qblur=0.5 / ip_ratio=1.40 / aq=1:1.00
Language : Japanese
Default : Yes
Forced : No
Audio
ID : 2
Format : AC-3
Format/Info : Audio Coding 3
Mode extension : CM (complete main)
Format settings, Endianness : Big
Codec ID : A_AC3
Duration : 2h 12mn
Bit rate mode : Constant
Bit rate : 640 Kbps
Channel(s) : 2 channels
Channel positions : Front: L R
Sampling rate : 48.0 KHz
Bit depth : 16 bits
Compression mode : Lossy
Stream size : 609 MiB (20%)
Language : Japanese
Default : Yes
Forced : No
Menu
00:00:00.000 : ja:overture ~ the world
00:06:17.000 : ja:dream scape
00:11:26.000 : ja:MC#4
00:14:37.000 : ja:vanity
00:18:51.000 : ja:Liminality
00:24:00.000 : ja:in the land of twilight, under moon
00:29:04.000 : ja:MC#2
00:36:43.000 : ja:the main theme of Petit Cossette
00:42:09.000 : ja:宝石 (Houseki)
00:47:01.000 : ja:fake wings
00:50:18.000 : ja:媛星 (Himeboshi)
00:51:53.000 : ja:目覚め (Mezame)
00:58:31.000 : ja:you are my love
01:01:44.000 : ja:MC#3
01:05:46.000 : ja:godsibb
01:11:24.000 : ja:a song of storm and fire
01:16:00.000 : ja:MC#4
01:23:35.000 : ja:canta per me
01:26:56.000 : ja:salva nos
01:33:54.000 : ja:zodiacal sign
01:40:20.000 : ja:open your heart
01:46:24.000 : ja:EC
01:47:19.000 : ja:everlasting song
01:54:54.000 : ja:MC#5
01:58:00.000 : ja:ユメノツバサ (yume no tsubasa)
02:04:41.000 : ja:ring your song
02:09:04.000 : ja:End Credits: "where the lights are" Japanese ver.

Yuki Kajiura LIVE 2008.07.31 - Special Interview

General
Unique ID : 174001378893339314078865635125190516222 (0x82E77254374FDFE1ABD1A0ED69CCDDFE)
Complete name : I:\2008.12.24 - Yuki Kajiura LIVE 2008.07.31\Yuki Kajiura LIVE 2008.07.31 - Special Interview.mkv
Format : Matroska
Format version : Version 2
File size : 873 MiB
Duration : 49mn 47s
Overall bit rate : 2 450 Kbps
Encoded date : UTC 2014-05-15 22:10:51
Writing application : mkvmerge v3.3.0 ('Language') built on Mar 24 2010 14:59:24
Writing library : libebml v0.8.0 + libmatroska v0.9.0
Video
ID : 1
Format : AVC
Format/Info : Advanced Video Codec
Format profile : [email protected]
Format settings, CABAC : Yes
Format settings, ReFrames : 4 frames
Codec ID : V_MPEG4/ISO/AVC
Duration : 49mn 47s
Bit rate : 2 000 Kbps
Width : 848 pixels
Height : 480 pixels
Display aspect ratio : 16:9
Frame rate mode : Constant
Frame rate : 29.970 fps
Color space : YUV
Chroma subsampling : 4:2:0
Bit depth : 8 bits
Scan type : Progressive
Bits/(Pixel*Frame) : 0.164
Stream size : 696 MiB (80%)
Writing library : x264 core 92 r1510 33d382a
Encoding settings : cabac=1 / ref=3 / deblock=1:0:0 / analyse=0x3:0x113 / me=hex / subme=7 / psy=1 / psy_rd=1.00:0.00 / mixed_ref=1 / me_range=16 / chroma_me=1 / trellis=1 / 8x8dct=1 / cqm=0 / deadzone=21,11 / fast_pskip=1 / chroma_qp_offset=-2 / threads=3 / sliced_threads=0 / nr=0 / decimate=1 / interlaced=0 / constrained_intra=0 / bframes=3 / b_pyramid=2 / b_adapt=1 / b_bias=0 / direct=3 / wpredb=1 / wpredp=2 / keyint=250 / keyint_min=25 / scenecut=40 / intra_refresh=0 / rc_lookahead=40 / rc=2pass / mbtree=1 / bitrate=2000 / ratetol=1.0 / qcomp=0.60 / qpmin=10 / qpmax=51 / qpstep=4 / cplxblur=20.0 / qblur=0.5 / ip_ratio=1.40 / aq=1:1.00
Default : Yes
Forced : No
Audio
ID : 2
Format : AC-3
Format/Info : Audio Coding 3
Mode extension : CM (complete main)
Format settings, Endianness : Big
Codec ID : A_AC3
Duration : 49mn 47s
Bit rate mode : Constant
Bit rate : 448 Kbps
Channel(s) : 2 channels
Channel positions : Front: L R
Sampling rate : 48.0 KHz
Bit depth : 16 bits
Compression mode : Lossy
Stream size : 160 MiB (18%)
Default : Yes
Forced : No

Скриншоты

Yuki Kajiura LIVE 2008.07.31



Yuki Kajiura LIVE 2008.07.31 - Special Interview





Последний раз редактировалось: Alex1998 (2015-12-28 14:08), всего редактировалось 2 раз(а)

Создавать темы 28-Дек-2015 13:47

[Профиль]  [ЛС] 

Alex1998 ®

Стаж: 4 года 3 месяца

Сообщений: 7

Симпатии: 2

Концерт - однозначный мастхэв, просто услада для ушей! Категорически рекомендуется к просмотру всем ценителям хорошей музыки ab
Особенно к новому году, как альтернатива "голубым огонькам" и "дискотекам 80-х" ag
Забыл треклист добавить...

Треклист

01 - the world (.hack//SIGN ORIGINAL SOUND & SONG TRACK 1 - 02)
02 - dreamscape (Tsubasa Chronicle Original Soundtrack Future Soundscape III - 11)
03 - MC#1
04 - vanity (Kajiura Yuki - FICTION - 05)
05 - Liminality (.hack//Liminality ORIGINAL SOUNDTRACK - 20)
06 - in the land of twilight, under the moon (.hack//SIGN ORIGINAL SOUND & SONG TRACK 2 - 04)
07 - MC#2
08 - the main theme of Petit Cossette (Le Portrait de Petit Cossette ~Kozetto no Shouzou~ Original Soundtrack - 01)
09 - Houseki (Marina Inoue - Houseki - 01)
10 - fake wings (.hack//SIGN ORIGINAL SOUND & SONG TRACK 1 - 07)
11 - ensei (Mai-HiME ORIGINAL SOUNDTRACK Vol.1 HiME - 01)
12 - mezame (Mai-HiME ORIGINAL SOUNDTRACK Vol.1 HiME - 23)
13 - you are my love (Tsubasa Chronicle Original Soundtrack Future Soundscape I - 07)
14 - MC#3
15 - godsibb (Xenosaga III [Zarathustra wa Kaku Katariki] ORIGINAL SOUND BEST TRACKS Yuki Kajiura Selection - Disc 2 - 09)
16 - a song of storm and fire (Tsubasa Chronicle Original Soundtrack Future Soundscape I - 18)
17 - MC#4
18 - canta per me (NOIR ORIGINAL SOUNDTRACK I - 04)
19 - salva nos (NOIR ORIGINAL SOUNDTRACK I - 17)
20 - zodiacal sign (Aquarian Age ~ Sign for Evolution ORIGINAL SOUNDTRACK - 02)
21 - open your heart (.hack//SIGN ORIGINAL SOUND & SONG TRACK 2 - 01)
23 - EC
24 - everlasting song (FictionJunction ASUKA - everlasting song - 01)
25 - MC#5
26 - yume no tsubasa (Tsubasa Chronicle Original Soundtrack Future Soundscape II - 18)
27 - ring your song (Tsubasa Chronicle Original Soundtrack Future Soundscape IV - 20)

Создавать темы 28-Дек-2015 13:56

[Профиль]  [ЛС] 
Показать сообщения:    
Ответить на тему

Текущее время: 22-Авг 14:18

Часовой пояс: UTC + 5



Вы не можете начинать темы
Вы не можете отвечать на сообщения
Вы не можете редактировать свои сообщения
Вы не можете удалять свои сообщения
Вы не можете голосовать в опросах
Вы не можете прикреплять файлы к сообщениям
Вы не можете скачивать файлы