Иррациональный человек / Irrational Man (Вуди Аллен / Woody Allen) [2015, США, драма, детектив, BDRip] (Dub) (Original Eng) [Чистый звук]

Ответить на тему
 

ladysco ®

Стаж: 5 лет 3 месяца

Сообщений: 40

Симпатии: 56

Иррациональный человек / Irrational Man
Страна: США
Жанр: драма, детектив
Год выпуска: 2015
Продолжительность: 01:34:50
Перевод: Профессиональный (дублированный) [Чистый звук]
Оригинальная аудиодорожка: английский
Режиссер: Вуди Аллен / Woody Allen
В ролях: Хоакин Феникс, Эмма Стоун, Джейми Блэкли, Паркер Поузи, Джо Степлтон, Нэнси Кэрролл, Эллисон Галлерани, Бригитт Ланди-Пейн, Кэтлин Семер, Бетси Айдем
Описание: Профессор философии Эйб Лукас опустошен: он не видит в своей жизни ни радости, ни смысла.
На лето Эйб приезжает преподавать в небольшой колледж, где у него завязываются отношения с двумя очень разными женщинами. Рита, его новая коллега, воображает, что именно он вызволит ее из несчастливого брака. А Джилл, его лучшая студентка, становится ему ближайшим другом. Но девушку неодолимо притягивают мятущаяся творческая натура Эйба и его загадочное прошлое, и она все больше отдаляется от своего бойфренда, Роя…
Все меняет невольно подслушанный Эйбом и Джилл разговор, после которого Эйб, стряхнув с себя равнодушие и отчаяние, решает действовать… Абсолютно иррационально.
 
Качество видео: BDRip
Формат видео: AVI
Видео: XviD, 720x304, 23.976 fps, 1 796 Kbps, 0.342 bits/pixel
Аудио RUS: 48 kHz, 2 ch, 192 kbps
Аудио ENG: 48 kHz, 2 ch, 192 kbps

MediaInfo

Format : AVI
Format/Info : Audio Video Interleave
File size : 1.45 GiB
Duration : 1h 34mn
Overall bit rate : 2 194 Kbps
Writing application : VirtualDubMod 1.5.10.3 | www.virtualdub-fr.org || (build 2550/release)
Writing library : VirtualDubMod build 2550/release
Video
ID : 0
Format : MPEG-4 Visual
Format profile : Advanced [email protected]
Format settings, BVOP : 1
Format settings, QPel : No
Format settings, GMC : No warppoints
Format settings, Matrix : Custom
Codec ID : XVID
Codec ID/Hint : XviD
Duration : 1h 34mn
Bit rate : 1 796 Kbps
Width : 720 pixels
Height : 304 pixels
Display aspect ratio : 2.35:1
Frame rate : 23.976 fps
Color space : YUV
Chroma subsampling : 4:2:0
Bit depth : 8 bits
Scan type : Progressive
Compression mode : Lossy
Bits/(Pixel*Frame) : 0.342
Stream size : 1.19 GiB (82%)
Writing library : XviD 73
Audio #1
ID : 1
Format : AC-3
Format/Info : Audio Coding 3
Mode extension : CM (complete main)
Format settings, Endianness : Big
Codec ID : 2000
Duration : 1h 34mn
Bit rate mode : Constant
Bit rate : 192 Kbps
Channel(s) : 2 channels
Channel positions : Front: L R
Sampling rate : 48.0 KHz
Bit depth : 16 bits
Compression mode : Lossy
Stream size : 130 MiB (9%)
Alignment : Split accross interleaves
Interleave, duration : 42 ms (1.00 video frame)
Interleave, preload duratio : 500 ms
Audio #2
ID : 2
Format : AC-3
Format/Info : Audio Coding 3
Mode extension : CM (complete main)
Format settings, Endianness : Big
Codec ID : 2000
Duration : 1h 34mn
Bit rate mode : Constant
Bit rate : 192 Kbps
Channel(s) : 2 channels
Channel positions : Front: L R
Sampling rate : 48.0 KHz
Bit depth : 16 bits
Compression mode : Lossy
Stream size : 130 MiB (9%)
Alignment : Split accross interleaves
Interleave, duration : 42 ms (1.00 video frame)
Interleave, preload duratio : 500 ms

Скриншоты



Последний раз редактировалось: ladysco (2015-12-28 16:36), всего редактировалось 1 раз

Создавать темы 28-Дек-2015 16:23

[Профиль]  [ЛС] 

shokirdmx

Стаж: 5 лет

Сообщений: 21

Симпатии: 2

Плюс

Создавать темы 28-Дек-2015 20:23

[Профиль]  [ЛС] 

Factor

Стаж: 7 лет 2 месяца

Сообщений: 16

Симпатии: 4

англ субтитры с отл. синхронизацией
http://dl.opensubtitles.org/en/download/sub/vrf-108d030f/6436396

Создавать темы 15-Фев-2016 17:00

[Профиль]  [ЛС] 
Показать сообщения:    
Ответить на тему

Текущее время: 23-Окт 16:46

Часовой пояс: UTC + 5



Вы не можете начинать темы
Вы не можете отвечать на сообщения
Вы не можете редактировать свои сообщения
Вы не можете удалять свои сообщения
Вы не можете голосовать в опросах
Вы не можете прикреплять файлы к сообщениям
Вы не можете скачивать файлы