Создатель / The Maker (Кристофер Кезелос / Christopher Kezelos) [2011 мультфильм, короткометражка, фэнтези, семейный, музыка, WEB-DLRip]

Ответить на тему
 

yarik ®

Стаж: 4 года 7 месяцев

Сообщений: 225

Симпатии: 123

Создатель / The Maker
Год выхода: 2011
Жанр: мультфильм, короткометражка, фэнтези, семейный, музыка,
Производство: Австралия
Перевод: Не требуется [музыкальное оформление]
Продолжительность: 00:05:30
Слоган: "Life is what you make it".
Режиссер: Кристофер Кезелос.
Сценарий: Кристофер Кезелос, Зиад Ямал.
Продюсеры: Кристин Кезелос, Кристофер Кезелос.
Оператор: Мэттью Хоррекс.
Художник: Кристофер Кезелос.
Композитор: Пол Хэлли.
Краткое описание:
Необычная и весьма странная раса существ пытается противостоять времени, чтобы создать, по их мнению, самое важное и красивое творение своей жизни.
 
Качество: WEB-Rip 720p
Видео: 1280x720 (16:9), 1236 Kbps, 24 fps
Звук: AAC, 192 Kbps, 2 ch, 44.1 KHz
Субтитры: Нет

Скриншоты:





Награды и номинации

Награды:
  • 2011 Rhode Island International Film Festival: Grand Prize (USA)
  • 2011 Lady Filmmakers Film Festival: Best of Festival (USA)
  • 2011 ACS Awards for Cinematography: NSW Gold Award (Australia)
  • 2012 SXSW Film Design Awards: Audience Award for Best Poster (USA)
  • 2012 Newport Beach Film Festival: Best Animated Short (USA)
  • 2012 Animayo Animation Film Festival: Special Jury Mention (Spain)
  • 2012 CFC Worldwide Short Film Festival: Best Animated Short (Canada)
  • 2012 Sydney Film Festival: Best Animated Short (Australia)
  • 2012 Seoul International Cartoon & Animation Festival: Grand Prize (Korea)
  • 2012 Indy Film Fest: Best Short Film – World Cinema (USA)
  • 2012 TheShortList Film Festival: Audience Award for Best Short Film (USA)
  • 2012 Granada Film Festival: Best International Short Animation (Spain)
  • 2012 ITSA Film Festival: Best Animated Film (USA)
  • 2012 San Jose Short Film Festival: Best Animated Short (USA)
  • 2012 Couch Fest Film Festival: Best Animation (International)
  • 2012 Kaohsiung Film Festival: Best Selection – Fantasy Short Film (Taiwan)
  • 2012 Kaohsiung Film Festival: Audience Choice – Fantasy Short Film (Taiwan)
  • 2012 Bondi Short Film Festival: Audience Choice (Australia)
  • 2012 Bondi Short Film Festival: Best Music (Australia)
  • 2012 Bondi Short Film Festival: Best Production Design (Australia)
  • 2012 Bondi Short Film Festival: Best Film (Australia)
  • 2013 Greek-Australian Short Film Festival: Best Film (Australia)
Номинации:
  • 2011 APRA Screen Music Awards (Australia)
  • 2012 AACTA Award for Best Short Animation (Australia)

MediaInfo

General
Complete name                            : /home/evgeniy/Видео/Создатель (The Maker, 2011) WEB-Rip 720p.mp4
Format                                   : MPEG-4
Format profile                           : Base Media / Version 2
Codec ID                                 : mp42 (isom/mp42)
File size                                : 56.3 MiB
Duration                                 : 5mn 30s
Overall bit rate mode                    : Variable
Overall bit rate                         : 1 430 Kbps
Encoded date                             : UTC 2014-04-18 17:38:34
Tagged date                              : UTC 2014-04-18 17:38:34
gsst                                     : 0
gstd                                     : 330233
gssd                                     : B4A7DDAE2MM1434625932281002
gshh                                     : r2---sn-4g57kuer.googlevideo.com
Video
ID                                       : 1
Format                                   : AVC
Format/Info                              : Advanced Video Codec
Format profile                           : [email protected]
Format settings, CABAC                   : Yes
Format settings, ReFrames                : 1 frame
Codec ID                                 : avc1
Codec ID/Info                            : Advanced Video Coding
Duration                                 : 5mn 30s
Bit rate                                 : 1 236 Kbps
Maximum bit rate                         : 6 777 Kbps
Width                                    : 1 280 pixels
Height                                   : 720 pixels
Display aspect ratio                     : 16:9
Frame rate mode                          : Constant
Frame rate                               : 24.000 fps
Color space                              : YUV
Chroma subsampling                       : 4:2:0
Bit depth                                : 8 bits
Scan type                                : Progressive
Bits/(Pixel*Frame)                       : 0.056
Stream size                              : 48.6 MiB (86%)
Encoded date                             : UTC 1904-01-01 00:00:00
Tagged date                              : UTC 2014-04-18 17:38:40
Audio
ID                                       : 2
Format                                   : AAC
Format/Info                              : Advanced Audio Codec
Format profile                           : LC
Codec ID                                 : 40
Duration                                 : 5mn 30s
Bit rate mode                            : Variable
Bit rate                                 : 192 Kbps
Maximum bit rate                         : 202 Kbps
Channel(s)                               : 2 channels
Channel positions                        : Front: L R
Sampling rate                            : 44.1 KHz
Frame rate                               : 43.066 fps (1024 spf)
Compression mode                         : Lossy
Stream size                              : 7.56 MiB (13%)
Title                                    : IsoMedia File Produced by Google, 5-11-2011
Encoded date                             : UTC 2014-04-18 17:38:38
Tagged date                              : UTC 2014-04-18 17:38:40

Создавать темы 28-Дек-2015 23:39

[Профиль]  [ЛС] 

Slowwalker

Стаж: 4 года 8 месяцев

Сообщений: 165

Симпатии: 68

Крипота то какая :3

Создавать темы 28-Дек-2015 23:42

[Профиль]  [ЛС] 

yarik ®

Стаж: 4 года 7 месяцев

Сообщений: 225

Симпатии: 123

Как говорится "краткость сестра таланта" мульт не просто классный, он шикарный. прям как рубаи хаяма, где в четверостишье вложены и смысл и эмоции. так и в этом мультфильме, в столько короткое время втиснута вся суть бытия. Не побоюсь сказать, что эти пять минут получились философскими и мрачными, наполненные мелодией - как бы говорящей, что тишина - это смерть... Так и есть, ведь сюжет рассказывает вовсе не о ней, а наоборот о жизни и цикличности нашего мира.

Создавать темы 28-Дек-2015 23:47

[Профиль]  [ЛС] 

Slowwalker

Стаж: 4 года 8 месяцев

Сообщений: 165

Симпатии: 68

964037Как говорится "краткость сестра таланта" мульт не просто классный, он шикарный. прям как рубаи хаяма, где в четверостишье вложены и смысл и эмоции. так и в этом мультфильме, в столько короткое время втиснута вся суть бытия. Не побоюсь сказать, что эти пять минут получились философскими и мрачными, наполненные мелодией - как бы говорящей, что тишина - это смерть... Так и есть, ведь сюжет рассказывает вовсе не о ней, а наоборот о жизни и цикличности нашего мира.
Ты ролики Future Shorts посмотри, там подобного философского добра куча )

Создавать темы 28-Дек-2015 23:53

[Профиль]  [ЛС] 

yarik ®

Стаж: 4 года 7 месяцев

Сообщений: 225

Симпатии: 123

Slowwalker, качай@заливай

Создавать темы 28-Дек-2015 23:54

[Профиль]  [ЛС] 

iggi86

Стаж: 6 лет 7 месяцев

Сообщений: 10

а душа оказалась в музыке

Создавать темы 29-Дек-2015 20:40

[Профиль]  [ЛС] 
Показать сообщения:    
Ответить на тему

Текущее время: 22-Сен 04:11

Часовой пояс: UTC + 5



Вы не можете начинать темы
Вы не можете отвечать на сообщения
Вы не можете редактировать свои сообщения
Вы не можете удалять свои сообщения
Вы не можете голосовать в опросах
Вы не можете прикреплять файлы к сообщениям
Вы не можете скачивать файлы