Смертельная тоска / Anguish (Сонни Маллхи) [2015, США, Ужасы, WEBDLRip] (MVO : [Хихикающий доктор])

Ответить на тему
 

lucky999 ®

Стаж: 2 года

Сообщений: 32

Симпатии: 43

--Смертельная тоска / Anguish-- Страна: США
Жанр: Ужасы
Год выпуска: 2015
Продолжительность: 01:31:33--Перевод: Любительский (одноголосый) [Хихикающий доктор]
Режиссер: Сонни Маллхи
В ролях: Райан Симпкинс, Анника Маркс, Карина Лог, Клифф Чемберлен, Эмберли Гридли, Райан О’Нан, Полина Ольсцунски, Ану Бхатт
Описание: Девочка-подросток Тэсс долгие годы страдает психическим расстройством. Врачи ставят ей диагноз - расстройство личности. Ее мать Джессика решает переехать в новый дом с надеждой, что новое место и новые ощущения помогут дочери. Но череда странных событий заставляет её задуматься, что расстройство Тэсс этому виной, и ей стало хуже...
Доп. информация:
сценарий: Сонни Маллхи
продюсер: Малик Бейдер, Гай Данелла, Сонни Маллхи, ...
оператор: Аманда Трейз
композитор: James Curd
художник: Дэвид Кристофер Краузе, Кейти Бирмингем, Lana McAllister, ...--Качество видео: WEBDLRip
Формат видео: AVI--Видео: Xvid 720x304 23.976fps 1919kbps
Аудио: MP3 44100Hz stereo 192kbps

MediaInfo

General
Complete name : E:\torrent\Angu1sh.2015.L1.WEBDLRip.1400MB.avi
Format : AVI
Format/Info : Audio Video Interleave
File size : 1.36 GiB
Duration : 1h 31mn
Overall bit rate : 2 121 Kbps
Writing application : VirtualDubMod 1.5.10.3 | www.virtualdub-fr.org || (build 2550/release)
Writing library : VirtualDubMod build 2550/release
Video
ID : 0
Format : MPEG-4 Visual
Format profile : Advanced [email protected]
Format settings, BVOP : 2
Format settings, QPel : No
Format settings, GMC : No warppoints
Format settings, Matrix : Default (MPEG)
Codec ID : XVID
Codec ID/Hint : XviD
Duration : 1h 31mn
Bit rate : 1 919 Kbps
Width : 720 pixels
Height : 304 pixels
Display aspect ratio : 2.35:1
Frame rate : 23.976 fps
Color space : YUV
Chroma subsampling : 4:2:0
Bit depth : 8 bits
Scan type : Progressive
Compression mode : Lossy
Bits/(Pixel*Frame) : 0.366
Stream size : 1.23 GiB (90%)
Writing library : XviD 1.2.1 (UTC 2008-12-04)
Audio
ID : 1
Format : MPEG Audio
Format version : Version 1
Format profile : Layer 3
Codec ID : 55
Codec ID/Hint : MP3
Duration : 1h 31mn
Bit rate mode : Constant
Bit rate : 192 Kbps
Channel(s) : 2 channels
Sampling rate : 44.1 KHz
Compression mode : Lossy
Stream size : 126 MiB (9%)
Alignment : Split accross interleaves
Interleave, duration : 42 ms (1.00 video frame)
Interleave, preload duration : 500 ms

Скриншоты





Создавать темы 30-Дек-2015 00:14

[Профиль]  [ЛС] 
Показать сообщения:    
Ответить на тему

Текущее время: 22-Сен 11:21

Часовой пояс: UTC + 5



Вы не можете начинать темы
Вы не можете отвечать на сообщения
Вы не можете редактировать свои сообщения
Вы не можете удалять свои сообщения
Вы не можете голосовать в опросах
Вы не можете прикреплять файлы к сообщениям
Вы не можете скачивать файлы