Грядущее / Il Futuro (Алисия Шерсон) [2013, Германия, Италия, Чили, Испания, драма, WEB-DLRip] (MVO : [Канал Точка Zрения])

Ответить на тему
 

lucky999 ®

Стаж: 2 года 1 месяц

Сообщений: 32

Симпатии: 43

--Грядущее / Il Futuro-- Страна: Германия, Италия, Чили, Испания
Жанр: драма
Год выпуска: 2013
Продолжительность: 01:35:17--Перевод: Любительский (многоголосый закадровый) Доп. инфо о переводе [Канал Точка Zрения]
Cубтитры: нет
Режиссер: Алисия Шерсон
В ролях: Рутгер Хауэр, Мануэла Мартелли, Луиджи Чиардо, Николас Вапоридис, Алессандро Джиалокоста, Пино Калабрезе, Марко Антонино
Описание: Старшеклассница Бьянка теряет родителей в автокатастрофе и остается одна с младшим братом Томасом. Вскоре Томас приводит в дом новых друзей, которые предлагают девушке план: она должна втереться в доверие к бывшему актеру и мистеру Вселенная по прозвищу Мачисте, доживающему свой век в одиночестве на богатой вилле, и узнать, где он хранит сейф с деньгами. Бьянка соглашается. Ей все равно - она курит одну сигарету за другой, а по ночам не может спать, потому что даже в ночной темноте ей чудится яркий свет. Вечная полутьма старой виллы, где прячется ослепший и забытый кумир миллионов, скрывает будущее Бьянки.-Доп. информация:
IMDB рейтинг: 0.0/10
КиноПоиск рейтинг: 5.8/10-Качество видео: WEB-DLRip
Формат видео: AVI-Видео: 1922 Kb/s, 704x384
Аудио: AC3, 448 Kb/s (6 ch)

MediaInfo

General
Complete name : E:\torrent\Il Futuro-2013.avi
Format : AVI
Format/Info : Audio Video Interleave
Format profile : OpenDML
Format settings : rec
File size : 1.58 GiB
Duration : 1h 35mn
Overall bit rate : 2 377 Kbps
Writing application : AVI-Mux GUI 1.17.8.3, Feb 16 201019:42:50
Video
ID : 0
Format : MPEG-4 Visual
Format profile : Advanced [email protected]
Format settings, BVOP : 2
Format settings, QPel : No
Format settings, GMC : No warppoints
Format settings, Matrix : Custom
Codec ID : XVID
Codec ID/Hint : XviD
Duration : 1h 35mn
Bit rate : 1 923 Kbps
Width : 704 pixels
Height : 384 pixels
Display aspect ratio : 1.85:1
Frame rate : 25.000 fps
Color space : YUV
Chroma subsampling : 4:2:0
Bit depth : 8 bits
Scan type : Progressive
Compression mode : Lossy
Bits/(Pixel*Frame) : 0.285
Stream size : 1.28 GiB (81%)
Writing library : XviD 73
Audio
ID : 1
Format : AC-3
Format/Info : Audio Coding 3
Mode extension : CM (complete main)
Format settings, Endianness : Big
Codec ID : 2000
Duration : 1h 35mn
Bit rate mode : Constant
Bit rate : 448 Kbps
Channel(s) : 6 channels
Channel positions : Front: L C R, Side: L R, LFE
Sampling rate : 48.0 KHz
Compression mode : Lossy
Stream size : 305 MiB (19%)
Alignment : Aligned on interleaves
Interleave, duration : 64 ms (1.60 video frames)
Interleave, preload duration : 192 ms
Title : Правильный перевод Канала Точка Zрения - Il

Скриншот c названием фильма

Скриншоты




Создавать темы 31-Дек-2015 15:34

[Профиль]  [ЛС] 

Топик был перенесен из форума Фильмы за 2010-2013 в форум Арт-хаус и авторское кино
kat222000

Создавать темы 31-Дек-2015 23:30

 
Показать сообщения:    
Ответить на тему

Текущее время: 23-Окт 04:00

Часовой пояс: UTC + 5



Вы не можете начинать темы
Вы не можете отвечать на сообщения
Вы не можете редактировать свои сообщения
Вы не можете удалять свои сообщения
Вы не можете голосовать в опросах
Вы не можете прикреплять файлы к сообщениям
Вы не можете скачивать файлы