Superнянь 2 / Babysitting 2 (Николас Бенаму, Филипп Лашо) [2015, Франция, комедия, WEB-DLRip] [Лицензия]

Ответить на тему
 

ruhal ®

Стаж: 2 года 8 месяцев

Сообщений: 1181

Симпатии: 1836

- -Superнянь 2 / Babysitting 2- - Страна: Франция
Жанр: комедия
Год выпуска: 2015
Продолжительность: 01:24:03-Перевод: Профессиональный (дублированный) Лицензия
Cубтитры: нет-Режиссер: Николас Бенаму, Филипп Лашо-В ролях: Филипп Лашо, Алис Давид, Венсан Дезанья, Тарек Будали, Кристиан Клавье,
Жюльен Аррути, Грегуар Людиг, Давид Марсе, Шарлотта Габрис, Бето Бенитес-Описание: Влюбленная парочка Фрэнк и Соня приглашают своих друзей на отдых в Бразилию,
в роскошный отель богатенького папы Сони. Планировалось, что это будет отдых мечты,
а Фрэнк сделает Соне предложение посреди всей этой экзотики. Но его попытки получить
одобрение отца оборачиваются полным провалом. Ведь с такими друзьями, как у него, и враги не нужны!
Но настоящая катастрофа — впереди. Когда друзья — сексуально озабоченный Сэм,
наивный чудак Эрнест и умственно отсталый Алекс — вместе с беднягой Фрэнком собрались на экскурсию,
ушлый папаша пользуется возможностью и засылает в джунгли с этой бандой свою крикливую и надоедливую старушку.
В общем, Амазонка и ее девственные леса еще никогда не были в такой опасности!-Качество видео: WEB-DLRip
Формат видео: AVI
Видео: Xvid 720x400 24fps 1717kbps
Аудио: Dolby AC3 48000Hz 6ch 384kbps
-

MediaInfo

General
Complete name : E:\Films\SUPERNYN.II.2015.D.WEB-DLRip.14OOMb.avi
Format : AVI
Format/Info : Audio Video Interleave
File size : 1.37 GiB
Duration : 1h 32mn
Overall bit rate : 2 111 Kbps
Writing application : VirtualDubMod 1.5.10.2 (build 2540/release)
Writing library : VirtualDubMod build 2540/release
Video
ID : 0
Format : MPEG-4 Visual
Format profile : Advanced [email protected]
Format settings, BVOP : 2
Format settings, QPel : No
Format settings, GMC : No warppoints
Format settings, Matrix : Default (MPEG)
Codec ID : XVID
Codec ID/Hint : XviD
Duration : 1h 32mn
Bit rate : 1 718 Kbps
Width : 720 pixels
Height : 400 pixels
Display aspect ratio : 16:9
Frame rate : 24.000 fps
Color space : YUV
Chroma subsampling : 4:2:0
Bit depth : 8 bits
Scan type : Progressive
Compression mode : Lossy
Bits/(Pixel*Frame) : 0.249
Stream size : 1.11 GiB (81%)
Writing library : XviD 1.2.1 (UTC 2008-12-04)
Audio
ID : 1
Format : AC-3
Format/Info : Audio Coding 3
Mode extension : CM (complete main)
Format settings, Endianness : Big
Codec ID : 2000
Duration : 1h 32mn
Bit rate mode : Constant
Bit rate : 384 Kbps
Channel(s) : 6 channels
Channel positions : Front: L C R, Side: L R, LFE
Sampling rate : 48.0 KHz
Bit depth : 16 bits
Compression mode : Lossy
Stream size : 255 MiB (18%)
Alignment : Split accross interleaves
Interleave, duration : 42 ms (1.00 video frame)
Interleave, preload duration : 500 ms

Скриншоты



Создавать темы 01-Янв-2016 18:32

[Профиль]  [ЛС] 
Показать сообщения:    
Ответить на тему

Текущее время: 18-Дек 23:43

Часовой пояс: UTC + 5



Вы не можете начинать темы
Вы не можете отвечать на сообщения
Вы не можете редактировать свои сообщения
Вы не можете удалять свои сообщения
Вы не можете голосовать в опросах
Вы не можете прикреплять файлы к сообщениям
Вы не можете скачивать файлы