Матрица - Трилогия / Matrix - Trilogy (Энди Вачовски, Лана Вачовски) [1999 - 2003г., США, Австралия, фантастика, боевик, приключения, BLuray] (Dub)

Ответить на тему
 

lexoice ®

Стаж: 5 лет 9 месяцев

Сообщений: 32

Симпатии: 4

Матрица трилогия / Matrix trilogy (BLuRay) --- ---Матрица / Matrix (BLuRay)Матрица / Matrix
Год выпуска: 1999
Страна: США
Жанр: Фантастика боевик
Продолжительность: 02:16:18-В ролях:Кеану Ривз, Лоуренс Фишборн, Кэрри-Энн Мосс, Хьюго Уивинг, Глория Фостер, Джо Пантолиано, Маркус Чонг, Джулиан Араханга, Мэтт Доран, Белинда МакКлори
Режиссёр: Энди Вачовски, Ларри Вачовски-Описание: В один прекрасный день хакер Томас Андерсон обнаруживает, что за ним охотятся правительственные агенты и странные незнакомцы. Первые хотят получить от него информацию, вторые же хотят ему ее передать. И когда он таки попадает ко вторым, оказывается что весь мир, который он видел и знал с детства не существует - а всего лись сгенерирован компьютерами, так называемой Матрицей, в его сознании. Его новые знакомые предлагают ему освобождение....---Качество: BluRay
Формат: m2ts
Видео кодек: VC-1
Аудио кодек: AC3
Видео: WVC1 1920x1080 23.976fp/17.0 Mbps битрейт
Аудио: Dolby AC3 48000Hz 6ch 448kbps .5,1

Дополнительные аудио дорожки

Audio: DTS 48000Hz 6ch 1536kbps [A: dts, 48000 Hz, 5.1, 1536 kb/s]
Audio: DTS 48000Hz 6ch 1536kbps [A: dts, 48000 Hz, 5.1, 1536 kb/s]
Audio: 0x4448 48000Hz 6ch 4608kbps [A: pcm_bluray, 48000 Hz, 5.1, s16, 4608 kb/s]
Озвучивание: Лицензия-

Медиа Инфо

General
ID : 0 (0x0)
Complete name : D:\torrents\Matrix\1390_Matrica_1.m2ts
Format : BDAV
Format/Info : Blu-ray Video
File size : 24.9 GiB
Duration : 2h 16mn
Overall bit rate mode : Variable
Overall bit rate : 26.1 Mbps
Maximum Overall bit rate : 48.0 Mbps
Video
ID : 4113 (0x1011)
Menu ID : 1 (0x1)
Format : VC-1
Format profile : [email protected]
Codec ID : 234
Duration : 2h 16mn
Bit rate : 17.0 Mbps
Width : 1 920 pixels
Height : 1 080 pixels
Display aspect ratio : 16:9
Frame rate : 23.976 fps
Color space : YUV
Chroma subsampling : 4:2:0
Bit depth : 8 bits
Scan type : Progressive
Compression mode : Lossy
Bits/(Pixel*Frame) : 0.342
Stream size : 16.2 GiB (65%)
Audio #1
ID : 4352 (0x1100)
Menu ID : 1 (0x1)
Format : AC-3
Format/Info : Audio Coding 3
Mode extension : CM (complete main)
Format settings, Endianness : Big
Codec ID : 129
Duration : 2h 16mn
Bit rate mode : Constant
Bit rate : 448 Kbps
Channel(s) : 6 channels
Channel positions : Front: L C R, Side: L R, LFE
Sampling rate : 48.0 KHz
Bit depth : 16 bits
Compression mode : Lossy
Stream size : 437 MiB (2%)
Audio #2
ID : 4353 (0x1101)
Menu ID : 1 (0x1)
Format : DTS
Format/Info : Digital Theater Systems
Mode : 16
Format settings, Endianness : Big
Codec ID : 130
Duration : 2h 16mn
Bit rate mode : Constant
Bit rate : 1 510 Kbps
Channel(s) : 6 channels
Channel positions : Front: L C R, Side: L R, LFE
Sampling rate : 48.0 KHz
Bit depth : 24 bits
Compression mode : Lossy
Stream size : 1.44 GiB (6%)
Audio #3
ID : 4354 (0x1102)
Menu ID : 1 (0x1)
Format : DTS
Format/Info : Digital Theater Systems
Mode : 16
Format settings, Endianness : Big
Codec ID : 130
Duration : 2h 16mn
Bit rate mode : Constant
Bit rate : 1 510 Kbps
Channel(s) : 6 channels
Channel positions : Front: L C R, Side: L R, LFE
Sampling rate : 48.0 KHz
Bit depth : 24 bits
Compression mode : Lossy
Stream size : 1.44 GiB (6%)
Audio #4
ID : 4355 (0x1103)
Menu ID : 1 (0x1)
Format : PCM
Format settings, Endianness : Big
Format settings, Sign : Signed
Muxing mode : Blu-ray
Codec ID : 128
Duration : 2h 16mn
Bit rate mode : Constant
Bit rate : 4 608 Kbps
Channel(s) : 6 channels
Channel positions : Front: L C R, Side: L R, LFE
Sampling rate : 48.0 KHz
Bit depth : 16 bits
Stream size : 4.39 GiB (18%)
-

Скриншоты



---Матрица: Перезагрузка / Matrix: Reload (BLuRay) -Матрица / Matrix
Год выпуска: 2003
Страна: США
Жанр: Фантастика боевик
Продолжительность: 02:18:15-В ролях:Лоуренс Фишберн, Киану Ривз, Кэри-Энн Мосс, Хьюго Уивинг, Глория Фостер, Нона Гайе, Моника Беллуччи, Джада Пинкетт Смит, Гарольд Перрино, Ламберт Уилсон-Режиссёр: Энди Вачовски, Ларри Вачовски-Описание: Нео, Тринити и Морфеус продолжают руководить восстанием людей против Армии Машин. Для уничтожения системы репрессий и эксплуатации они вынуждены прибегнуть не только к арсеналу превосходного оружия, но и к своим выдающимся навыкам. Участие в миссии по спасению человеческой расы от ее полного истребления приносит им более глубокое понимание конструкции Матрицы и осознание центральной роли Нео в судьбе человечества.---Качество: BluRay
Формат: m2ts
Видео кодек: VC-1
Аудио кодек: AC3
Видео: WVC1 1920x1080 23.976fp/17.0 Mbps битрейт
Аудио: Dolby AC3 48000Hz 6ch 448kbps .5,1

Дополнительные аудио дорожки

Audio: DTS 48000Hz 6ch 1536kbps [A: dts, 48000 Hz, 5.1, 1536 kb/s]
Audio: DTS 48000Hz 6ch 1536kbps [A: dts, 48000 Hz, 5.1, 1536 kb/s]
Audio: 0x4448 48000Hz 6ch 4608kbps [A: pcm_bluray, 48000 Hz, 5.1, s16, 4608 kb/s]
Озвучивание: Лицензия-

Медиа Инфо

General
ID : 0 (0x0)
Complete name : D:\torrents\Matrix\1391_Matrica_2._Perezagruzka_1080p.m2ts
Format : BDAV
Format/Info : Blu-ray Video
File size : 22.7 GiB
Duration : 2h 18mn
Overall bit rate mode : Variable
Overall bit rate : 23.5 Mbps
Maximum Overall bit rate : 48.0 Mbps
Video
ID : 4113 (0x1011)
Menu ID : 1 (0x1)
Format : VC-1
Format profile : [email protected]
Codec ID : 234
Duration : 2h 18mn
Bit rate : 14.4 Mbps
Width : 1 920 pixels
Height : 1 080 pixels
Display aspect ratio : 16:9
Frame rate : 23.976 fps
Color space : YUV
Chroma subsampling : 4:2:0
Bit depth : 8 bits
Scan type : Progressive
Compression mode : Lossy
Bits/(Pixel*Frame) : 0.290
Stream size : 13.9 GiB (62%)
Audio #1
ID : 4352 (0x1100)
Menu ID : 1 (0x1)
Format : AC-3
Format/Info : Audio Coding 3
Mode extension : CM (complete main)
Format settings, Endianness : Big
Codec ID : 129
Duration : 2h 18mn
Bit rate mode : Constant
Bit rate : 448 Kbps
Channel(s) : 6 channels
Channel positions : Front: L C R, Side: L R, LFE
Sampling rate : 48.0 KHz
Bit depth : 16 bits
Compression mode : Lossy
Stream size : 443 MiB (2%)
Audio #2
ID : 4353 (0x1101)
Menu ID : 1 (0x1)
Format : DTS
Format/Info : Digital Theater Systems
Mode : 16
Format settings, Endianness : Big
Codec ID : 130
Duration : 2h 18mn
Bit rate mode : Constant
Bit rate : 1 510 Kbps
Channel(s) : 6 channels
Channel positions : Front: L C R, Side: L R, LFE
Sampling rate : 48.0 KHz
Bit depth : 24 bits
Compression mode : Lossy
Stream size : 1.46 GiB (6%)
Audio #3
ID : 4354 (0x1102)
Menu ID : 1 (0x1)
Format : DTS
Format/Info : Digital Theater Systems
Mode : 16
Format settings, Endianness : Big
Codec ID : 130
Duration : 2h 18mn
Bit rate mode : Constant
Bit rate : 1 510 Kbps
Channel(s) : 6 channels
Channel positions : Front: L C R, Side: L R, LFE
Sampling rate : 48.0 KHz
Bit depth : 24 bits
Compression mode : Lossy
Stream size : 1.46 GiB (6%)
Audio #4
ID : 4355 (0x1103)
Menu ID : 1 (0x1)
Format : PCM
Format settings, Endianness : Big
Format settings, Sign : Signed
Muxing mode : Blu-ray
Codec ID : 128
Duration : 2h 18mn
Bit rate mode : Constant
Bit rate : 4 608 Kbps
Channel(s) : 6 channels
Channel positions : Front: L C R, Side: L R, LFE
Sampling rate : 48.0 KHz
Bit depth : 16 bits
Stream size : 4.45 GiB (20%)
-

Скриншоты



Матрица - Революция /Matrix Revolutions (BLuRay) -Матрица / Matrix
Год выпуска: 2003
Страна: США
Жанр: Фантастика боевик
Продолжительность: 02:09:16-В ролях:Лоуренс Фишберн, Киану Ривз, Кэри-Энн Мосс, Джада Пинкетт Смит, Гарольд Перрино, Хьюго Уивинг, Ламберт Уилсон, Нона Гайе, Моника Беллуччи-Режиссёр: Энди Вачовски, Ларри Вачовски-Описание: Пока Армия Машин пытается уничтожить Зион, его жители из последних сил держат оборону. А единственной надежде человечества, избранному Нео, предстоит исполнить свою миссию, его ждет путешествие туда, куда не ступала нога человека - в самое сердце Города Машин, и решающая схватка с главным врагом - Агентом Смитом, созданным Матрицей и уже не контролируемымы ею. Считанные часы остаются до того момента, когда Зион падет и спасение людей будет невозможным.....---Качество: BluRay
Формат: m2ts
Видео кодек: VC-1
Аудио кодек: AC3
Видео: WVC1 1920x1080 23.976fp/17.0 Mbps битрейт
Аудио: Dolby AC3 48000Hz 6ch 448kbps .5,1

Дополнительные аудио дорожки

Audio: DTS 48000Hz 6ch 1536kbps [A: dts, 48000 Hz, 5.1, 1536 kb/s]
Audio: DTS 48000Hz 6ch 1536kbps [A: dts, 48000 Hz, 5.1, 1536 kb/s]
Audio: 0x4448 48000Hz 6ch 4608kbps [A: pcm_bluray, 48000 Hz, 5.1, s16, 4608 kb/s]
Озвучивание: Лицензия-

Медиа Инфо

General
ID : 0 (0x0)
Complete name : D:\torrents\Matrix\1393_Matrica_3.m2ts
Format : BDAV
Format/Info : Blu-ray Video
File size : 21.3 GiB
Duration : 2h 9mn
Overall bit rate mode : Variable
Overall bit rate : 23.6 Mbps
Maximum Overall bit rate : 48.0 Mbps
Video
ID : 4113 (0x1011)
Menu ID : 1 (0x1)
Format : VC-1
Format profile : [email protected]
Codec ID : 234
Duration : 2h 9mn
Bit rate : 14.6 Mbps
Width : 1 920 pixels
Height : 1 080 pixels
Display aspect ratio : 16:9
Frame rate : 23.976 fps
Color space : YUV
Chroma subsampling : 4:2:0
Bit depth : 8 bits
Scan type : Progressive
Compression mode : Lossy
Bits/(Pixel*Frame) : 0.294
Stream size : 13.2 GiB (62%)
Audio #1
ID : 4352 (0x1100)
Menu ID : 1 (0x1)
Format : AC-3
Format/Info : Audio Coding 3
Mode extension : CM (complete main)
Format settings, Endianness : Big
Codec ID : 129
Duration : 2h 9mn
Bit rate mode : Constant
Bit rate : 448 Kbps
Channel(s) : 6 channels
Channel positions : Front: L C R, Side: L R, LFE
Sampling rate : 48.0 KHz
Bit depth : 16 bits
Compression mode : Lossy
Stream size : 414 MiB (2%)
Audio #2
ID : 4353 (0x1101)
Menu ID : 1 (0x1)
Format : DTS
Format/Info : Digital Theater Systems
Mode : 16
Format settings, Endianness : Big
Codec ID : 130
Duration : 2h 9mn
Bit rate mode : Constant
Bit rate : 1 510 Kbps
Channel(s) : 6 channels
Channel positions : Front: L C R, Side: L R, LFE
Sampling rate : 48.0 KHz
Bit depth : 24 bits
Compression mode : Lossy
Stream size : 1.36 GiB (6%)
Audio #3
ID : 4354 (0x1102)
Menu ID : 1 (0x1)
Format : DTS
Format/Info : Digital Theater Systems
Mode : 16
Format settings, Endianness : Big
Codec ID : 130
Duration : 2h 9mn
Bit rate mode : Constant
Bit rate : 1 510 Kbps
Channel(s) : 6 channels
Channel positions : Front: L C R, Side: L R, LFE
Sampling rate : 48.0 KHz
Bit depth : 24 bits
Compression mode : Lossy
Stream size : 1.36 GiB (6%)
Audio #4
ID : 4355 (0x1103)
Menu ID : 1 (0x1)
Format : PCM
Format settings, Endianness : Big
Format settings, Sign : Signed
Muxing mode : Blu-ray
Codec ID : 128
Duration : 2h 9mn
Bit rate mode : Constant
Bit rate : 4 608 Kbps
Channel(s) : 6 channels
Channel positions : Front: L C R, Side: L R, LFE
Sampling rate : 48.0 KHz
Bit depth : 16 bits
Stream size : 4.16 GiB (19%)
-

Скриншоты





Последний раз редактировалось: lexoice (2016-01-01 23:44), всего редактировалось 4 раз(а)

Создавать темы 01-Янв-2016 22:41

[Профиль]  [ЛС] 

-ARTUR-

Стаж: 2 года 4 месяца

Сообщений: 50

Симпатии: 78

что за формат

Создавать темы 01-Янв-2016 22:45

[Профиль]  [ЛС] 

Страх

Стаж: 4 года 2 месяца

Сообщений: 1131

Симпатии: 448

-ARTUR-, простой)

Создавать темы 01-Янв-2016 22:48

[Профиль]  [ЛС] 

Mohirjon

Стаж: 4 года 6 месяцев

Сообщений: 12

Симпатии: 3

FullHD класс

Создавать темы 01-Янв-2016 23:03

[Профиль]  [ЛС] 

lexoice ®

Стаж: 5 лет 9 месяцев

Сообщений: 32

Симпатии: 4

Формат M2TS используется для формата-контейнера Blu-ray Disc Audio-Video (BDAV) MPEG-2 Transport Stream. Его работа основана на использовании контейнера транспортного потока MPEG-2. Основная цель - хранение видеоданных на дисках Blu-ray.

Создавать темы 01-Янв-2016 23:20

[Профиль]  [ЛС] 

MiroMi

Стаж: 2 года 4 месяца

Сообщений: 11

Симпатии: 26

интересно одно за какое время сможет раздать хоть одному личеру

Создавать темы 08-Янв-2016 15:24

[Профиль]  [ЛС] 

totsamiy

Стаж: 5 лет 5 месяцев

Сообщений: 145

Симпатии: 22

lexoice, во первых спасибо за релиз, и по возможности раздавайте приемлемо.... честно говоря качать 100 лет не хочется...

Создавать темы 26-Янв-2016 18:43

[Профиль]  [ЛС] 

Powered by GMC

Стаж: 2 года 1 месяц

Сообщений: 202

Симпатии: 31

где супер раздача??? скорость мало совсем

Создавать темы 26-Янв-2016 20:07

[Профиль]  [ЛС] 

Powered by GMC

Стаж: 2 года 1 месяц

Сообщений: 202

Симпатии: 31

это аудио такой огромный или видео??? Гб

Создавать темы 26-Янв-2016 20:09

[Профиль]  [ЛС] 

Musurmon

Стаж: 7 лет

Сообщений: 11

Симпатии: 2

Powered by GMC, 20 гб аудио 50 гб видео ряди ,для этого видео ряда хватить 20 гигов если с хорошим тонкий настройками риповат.

Создавать темы 26-Янв-2016 21:02

[Профиль]  [ЛС] 

kerim.line

Стаж: 6 лет 11 месяцев

Сообщений: 25

100 % скачавшие!!! где вы? дайте докачать уже!!!! вам в своё время дали скачать, теперь ваша очередь! ждём все мы, скачавшие уже половину! когда то и вам нужна будет раздача, и, надеюсь, вам повезёт больше чем нам.

Создавать темы 16-Мар-2016 16:14

[Профиль]  [ЛС] 

kerim.line

Стаж: 6 лет 11 месяцев

Сообщений: 25

ну что там, скачавшие? где вы?????

Создавать темы 27-Мар-2016 15:32

[Профиль]  [ЛС] 

ziyod

Стаж: 7 лет 9 месяцев

Сообщений: 367

Симпатии: 60

Хвастовство... не более... И вообще то это не BluRay а BDRemux. Модеры.

Создавать темы 28-Мар-2016 10:31

[Профиль]  [ЛС] 

CONTRAST

Стаж: 5 лет 3 месяца

Сообщений: 14

дайте скорости ...

Создавать темы 09-Май-2016 21:13

[Профиль]  [ЛС] 

totsamiy

Стаж: 5 лет 5 месяцев

Сообщений: 145

Симпатии: 22

lexoice, тормоз. в *опу засунь себе этот релиз. пол года прошло!!!!!!!!!!!

Создавать темы 28-Июн-2016 17:06

[Профиль]  [ЛС] 
Показать сообщения:    
Ответить на тему

Текущее время: 14-Дек 20:20

Часовой пояс: UTC + 5



Вы не можете начинать темы
Вы не можете отвечать на сообщения
Вы не можете редактировать свои сообщения
Вы не можете удалять свои сообщения
Вы не можете голосовать в опросах
Вы не можете прикреплять файлы к сообщениям
Вы не можете скачивать файлы