Тринадцатый этаж / The Thirteenth Floor (Йозеф Руснак) [1999, США, Фантастика, триллер, детектив, BDRip] (Dub) (Sub Rus + Original Eng)

Ответить на тему
 

madd ®

Стаж: 6 лет 4 месяца

Сообщений: 25

Симпатии: 13

Тринадцатый этаж / The Thirteenth Floor
Страна: США
Жанр: Фантастика, триллер, детектив
Год выпуска: 1999
Продолжительность: 01:40:30
Перевод: Профессиональный (дублированный)
Cубтитры: русские
Оригинальная аудиодорожка: английский
Режиссер: Йозеф Руснак
В ролях: Крэйг Бирко, Гретхен Мол, Армин Мюллер-Шталь, Винсент Д’Онофрио, Деннис Хейсбёрт, Стивен Шуб, Джереми Робертс, Риф Хаттон, Леон Риппи, Джанет МакЛахлан
Описание: На тринадцатом этаже компьютерной корпорации была разработана совершенная модель виртуальной реальности, создание которой повлекло за собой цепь таинственных убийств. Разгадать загадку можно, лишь погрузившись в иное измерение, где может быть ответ на многие вопросы, а может быть — страшная нереальность…
Качество видео: BDRip
Формат видео: MKV
Видео: H.264, 1024x432, 2.40:1, 2 200 Kbps, 23.976 fps
Аудио: Русский/Профессиональный (дублированный) , AAC / 2.0 / 150 Kbps / 48.0 KHz
Аудио 2: Английский/Оригинальная дорожка , AAC / 2.0 / 144 Kbps / 48.0 KHz
Формат субтитров: softsub (SRT)
Доп. информация о субтитрах: Русские полные

MediaInfo

General
Complete name : C:\\Handbrake\\The.thirteenth.floor.(SD).(pk).m4v
Format : MPEG-4
Codec ID : M4V
File size : 1.75 GiB
Duration : 1h 40mn
Overall bit rate mode : Variable
Overall bit rate : 2 499 Kbps
Movie name : The Thirteenth Floor
Performer : Josef Rusnak
Genre : Sci-Fi & Fantasy
ContentType : Short Film
Description : На тринадцатом этаже компьютерной корпорации была разработана совершенная модель виртуальной реальности, создание которой повлекло за собой цепь таинственных убийств.
Recorded date : UTC 1999-04-16 08:00:00
Encoded date : UTC 2014-07-09 09:35:16
Tagged date : UTC 2014-07-09 09:36:36
Writing application : MkvToMp4 [www.mkvtomp4.ru] version 0.222
Copyright : © 1999 Columbia Pictures Industries, Inc. All Rights Reserved.
Service name : AOL
Cover : Yes
Title/Sort : Thirteenth Floor
LongDescription : На тринадцатом этаже компьютерной корпорации была разработана совершенная модель виртуальной реальности, создание которой повлекло за собой цепь таинственных убийств. Разгадать загадку можно, лишь погрузившись в иное измерение, где может быть ответ на многие вопросы, а может быть - страшная нереальность...
AppleStoreAccountType : AOL
AppleStoreCountry : Unknown Country
AppleStoreCatalogID : 284571749
Vendor : Apple:vendor_id:1999-1086
ContentRating : mpaa|R|400|
iTunMOVI : <?xml version=\"1.0\" encoding=\"UTF-8\"?> / <!DOCTYPE plist PUBLIC \"-//Apple//DTD PLIST 1.0//EN\" \"http://www.apple.com/DTDs/PropertyList-1.0.dtd\"> / <plist version=\"1.0\"> / <dict> / <key>cast</key> / <array> / <dict> / <key>name</key> / <string>Крэйг Бирко</string> / </dict> / <dict> / <key>name</key> / <string>Гретхен Мол</string> / </dict> / <dict> / <key>name</key> / <string>Армин Мюллер-Шталь</string> / </dict> / <dict> / <key>name</key> / <string>Винсент Д’Онофрио</string> / </dict> / <dict> / <key>name</key> / <string>Деннис Хейсбёрт</string> / </dict> / <dict> / <key>name</key> / <string>Стивен Шуб</string> / </dict> / <dict> / <key>name</key> / <string>Джереми Робертс</string> / </dict> / <dict> / <key>name</key> / <string>Риф Хаттон</string> / </dict> / <dict> / <key>name</key> / <string>Леон Риппи</string> / </dict> / <dict> / <key>name</key> / <string>Джанет МакЛахлан</string> / </dict> / </array> / <key>directors</key> / <array> / <dict> / <key>name</key> / <string>Йозеф Руснак</string> / </dict> / </array> / <key>producers</key> / <array> / <dict> / <key>name</key> / <string>Роланд Эммерих</string> / </dict> / <dict> / <key>name</key> / <string>Уте Эммерих</string> / </dict> / <dict> / <key>name</key> / <string>Марко Вебер</string> / </dict> / </array> / <key>screenwriters</key> / <array> / <dict> / <key>name</key> / <string>Йозеф Руснак</string> / </dict> / <dict> / <key>name</key> / <string>Равель Сентено-Родригес</string> / </dict> / <dict> / <key>name</key> / <string>Дэниэл Ф. Галуйе</string> / </dict> / </array> / </dict> / </plist>
Video
ID : 1
Format : AVC
Format/Info : Advanced Video Codec
Format profile : [email protected]
Format settings, CABAC : Yes
Format settings, ReFrames : 9 frames
Codec ID : avc1
Codec ID/Info : Advanced Video Coding
Duration : 1h 40mn
Bit rate : 2 200 Kbps
Maximum bit rate : 9 301 Kbps
Width : 1 024 pixels
Height : 432 pixels
Display aspect ratio : 2.40:1
Frame rate mode : Variable
Frame rate : 23.976 fps
Minimum frame rate : 23.810 fps
Maximum frame rate : 24.272 fps
Color space : YUV
Chroma subsampling : 4:2:0
Bit depth : 8 bits
Scan type : Progressive
Bits/(Pixel*Frame) : 0.207
Stream size : 1.54 GiB (88%)
Writing library : x264 core 130 r2273 b3065e6
Encoding settings : cabac=1 / ref=9 / deblock=1:0:0 / analyse=0x3:0x113 / me=umh / subme=9 / psy=1 / psy_rd=1.00:0.00 / mixed_ref=1 / me_range=32 / chroma_me=1 / trellis=1 / 8x8dct=1 / cqm=0 / deadzone=21,11 / fast_pskip=1 / chroma_qp_offset=-2 / threads=12 / lookahead_threads=1 / sliced_threads=0 / nr=0 / decimate=1 / interlaced=0 / bluray_compat=0 / constrained_intra=0 / bframes=6 / b_pyramid=2 / b_adapt=2 / b_bias=0 / direct=1 / weightb=1 / open_gop=0 / weightp=2 / keyint=240 / keyint_min=24 / scenecut=40 / intra_refresh=0 / rc_lookahead=40 / rc=2pass / mbtree=1 / bitrate=2200 / ratetol=1.0 / qcomp=0.60 / qpmin=0 / qpmax=69 / qpstep=4 / cplxblur=20.0 / qblur=0.5 / ip_ratio=1.40 / aq=1:1.00
Language : English
Encoded date : UTC 2014-07-09 09:35:16
Tagged date : UTC 2014-07-09 09:36:14
Color primaries : BT.709
Transfer characteristics : BT.709
Matrix coefficients : BT.709
Audio #1
ID : 2
Format : AAC
Format/Info : Advanced Audio Codec
Format profile : LC
Codec ID : 40
Duration : 1h 40mn
Bit rate mode : Variable
Bit rate : 150 Kbps
Maximum bit rate : 208 Kbps
Channel(s) : 2 channels
Channel positions : Front: L R
Sampling rate : 48.0 KHz
Compression mode : Lossy
Stream size : 108 MiB (6%)
Language : Russian
Encoded date : UTC 2014-07-09 09:35:47
Tagged date : UTC 2014-07-09 09:36:14
Audio #2
ID : 3
Format : AAC
Format/Info : Advanced Audio Codec
Format profile : LC
Codec ID : 40
Duration : 1h 40mn
Bit rate mode : Variable
Bit rate : 144 Kbps
Maximum bit rate : 209 Kbps
Channel(s) : 2 channels
Channel positions : Front: L R
Sampling rate : 48.0 KHz
Compression mode : Lossy
Stream size : 103 MiB (6%)
Language : English
Encoded date : UTC 2014-07-09 09:36:12
Tagged date : UTC 2014-07-09 09:36:14
Text #1
ID : 4
Format : Timed Text
Muxing mode : sbtl
Codec ID : tx3g
Duration : 1h 36mn
Bit rate mode : Variable
Bit rate : 77 bps
Stream size : 54.8 KiB (0%)
Language : Russian
Encoded date : UTC 2014-07-09 09:36:14
Tagged date : UTC 2014-07-09 09:36:14
Text #2
ID : 5
Format : Timed Text
Muxing mode : sbtl
Codec ID : tx3g
Duration : 1h 36mn
Bit rate mode : Variable
Bit rate : 47 bps
Stream size : 33.6 KiB (0%)
Language : English
Encoded date : UTC 2014-07-09 09:36:14
Tagged date : UTC 2014-07-09 09:36:14
Menu
ID : 6
Codec ID : text
Duration : 1h 40mn
Encoded date : UTC 2014-07-09 09:36:31
Tagged date : UTC 2014-07-09 09:36:31
Bit rate mode : VBR

Скриншоты

,
,

Создавать темы 02-Янв-2016 03:16

[Профиль]  [ЛС] 

kat222000

Стаж: 6 лет 4 месяца

Сообщений: 608

Симпатии: 1055

1.Формат видео: MKV
Format : MPEG-4
2.Видео: H.264
Codec ID : M4V
Расширение M4V – это видео файл, скаченный из магазина Apple Itunes, включает в себя ТВ-передачи, полнометражные фильмы, музыку и видео. Похож на .MP4 файл, но может быть защищен от копирования с использованием FairPlay DRM от Apple (Технические средства защиты авторских прав).
Для воспроизведения защищенного файла M4V, компьютер должен быть авторизован (с помощью ITunes), чтобы его можно было использовать для покупки видео.
Незащищенные файлы M4V можно проигрывать любыми другими видео проигрывателями, меняя расширение файла с .M4v на .Mp4

Создавать темы 02-Янв-2016 07:02

[Профиль]  [ЛС] 
Показать сообщения:    
Ответить на тему

Текущее время: 17-Авг 18:25

Часовой пояс: UTC + 5



Вы не можете начинать темы
Вы не можете отвечать на сообщения
Вы не можете редактировать свои сообщения
Вы не можете удалять свои сообщения
Вы не можете голосовать в опросах
Вы не можете прикреплять файлы к сообщениям
Вы не можете скачивать файлы