Шерлок : Безобразная невеста / Sherlock: The Abominable Bride / Сезон: 4 / Серии: 0 из ? (Дуглас Маккиннон) [2016, триллер, драма, криминал, детектив, ..., HDTVRip] (DUB : Первый канал)

Ответить на тему
 

Александр Гузов ®

Стаж: 4 года 9 месяцев

Сообщений: 112

Симпатии: 6

Шерлок : Безобразная невеста / Sherlock: The Abominable Bride
Год выпуска: 2016
Страна: Великобритания, США
Жанр: триллер, драма, криминал, детектив, ...
Продолжительность: 01:28:29
Перевод: Полное дублирование Доп. инфо о переводе Первый канал
Русские субтитры: нет
Режиссёр: Дуглас Маккиннон
В ролях: Бенедикт Камбербэтч, Мартин Фриман, Аманда Аббингтон, Руперт Грейвс, Лу Брили, Наташа О’Киффи, Уна Стаббс, Джонатан Арис, Стефани Хайм, Джералд Кид
Описание: «Доктор Ватсон, знакомьтесь, это мистер Шерлок Холмс». Мы все это уже проходили. Но что если бы их первая встреча состоялась не в наше время, а в конце Викторианской эпохи? Что было бы, если бы самый знаменитый консультирующий детектив и его лучший друг жили на Бейкер-стрит во времена паровозов, кэбов, цилиндров и сюртуков?
Качество: HDTVRip
Формат: TS
Видео: MPEG4 Video (H264) 1920x1080 25fps [V: h264 high L4.0, yuv420p, 1920x1080]
Аудио: MPEG Audio 48000Hz stereo 224kbps [A: Russian [rus] (mp2, 48000 Hz, stereo, 224 kb/s)]
Аудио 2: Dolby AC3 48000Hz 6ch 384kbps [A: Russian [rus] (ac3, 48000 Hz, 5.1, 384 kb/s)]

MediaInfo

General
ID : 1 (0x1)
Complete name : D:\Фильмы\Безобразная невеста.ts
Format : MPEG-TS
File size : 3.88 GiB
Duration : 1h 28mn
Overall bit rate mode : Variable
Overall bit rate : 6 285 Kbps
Video
ID : 257 (0x101)
Menu ID : 1 (0x1)
Format : AVC
Format/Info : Advanced Video Codec
Format profile : [email protected]
Format settings, CABAC : Yes
Format settings, ReFrames : 3 frames
Codec ID : 27
Duration : 1h 28mn
Bit rate : 5 361 Kbps
Width : 1 920 pixels
Height : 1 080 pixels
Display aspect ratio : 16:9
Frame rate : 25.000 fps
Standard : Component
Color space : YUV
Chroma subsampling : 4:2:0
Bit depth : 8 bits
Scan type : Interlaced
Scan order : Top Field First
Bits/(Pixel*Frame) : 0.103
Stream size : 3.31 GiB (85%)
Color primaries : BT.709
Transfer characteristics : BT.709
Matrix coefficients : BT.709
Color range : Limited
Audio #1
ID : 258 (0x102)
Menu ID : 1 (0x1)
Format : MPEG Audio
Format version : Version 1
Format profile : Layer 2
Codec ID : 3
Duration : 1h 28mn
Bit rate mode : Constant
Bit rate : 224 Kbps
Channel(s) : 2 channels
Sampling rate : 48.0 KHz
Compression mode : Lossy
Delay relative to video : -1s 544ms
Stream size : 142 MiB (4%)
Language : Russian
Audio #2
ID : 259 (0x103)
Menu ID : 1 (0x1)
Format : AC-3
Format/Info : Audio Coding 3
Mode extension : CM (complete main)
Format settings, Endianness : Big
Codec ID : 129
Duration : 1h 28mn
Bit rate mode : Constant
Bit rate : 384 Kbps
Channel(s) : 6 channels
Channel positions : Front: L C R, Side: L R, LFE
Sampling rate : 48.0 KHz
Bit depth : 16 bits
Compression mode : Lossy
Delay relative to video : -1s 573ms
Stream size : 243 MiB (6%)
Language : Russian
Text
ID : 256 (0x100)
Menu ID : 1 (0x1)
Format : DVB Subtitle
Codec ID : 6
Language : Russian
Menu
ID : 4096 (0x1000)
Menu ID : 1 (0x1)
Duration : 1h 28mn
List : 256 (0x100) (DVB Subtitle, Russian) / 257 (0x101) (AVC) / 258 (0x102) (MPEG Audio, Russian) / 259 (0x103) (AC-3, Russian)
Language : Russian / / Russian / Russian
Service name : Service01
Service provider : FFmpeg
Service type : digital television

Скриншоты





Последний раз редактировалось: Александр Гузов (2016-08-28 18:01), всего редактировалось 7 раз(а)

Создавать темы 02-Янв-2016 09:59

[Профиль]  [ЛС] 

lector_87

Стаж: 3 года 8 месяцев

Сообщений: 391

Симпатии: 348

Александр Гузов,Скриншоты поправте нужны саами скрины а не ссылки на них

Создавать темы 02-Янв-2016 11:23

[Профиль]  [ЛС] 

lector_87

Стаж: 3 года 8 месяцев

Сообщений: 391

Симпатии: 348

Александр Гузов,

Скриншоты

вот так вставляйте скрины

Создавать темы 02-Янв-2016 11:36

[Профиль]  [ЛС] 

lector_87

Стаж: 3 года 8 месяцев

Сообщений: 391

Симпатии: 348

нажимаете туда где я указал стрелкой внизу выйдет ссылка копируете её и вставляете сюда

Создавать темы 02-Янв-2016 11:39

[Профиль]  [ЛС] 

sobirrr

Стаж: 6 лет 9 месяцев

Сообщений: 15

Две дорожки русские или вторая английская?

Создавать темы 02-Янв-2016 12:45

[Профиль]  [ЛС] 

Александр Гузов ®

Стаж: 4 года 9 месяцев

Сообщений: 112

Симпатии: 6

sobirrr, обе дорожки русские.

Создавать темы 02-Янв-2016 12:49

[Профиль]  [ЛС] 

Александр Гузов ®

Стаж: 4 года 9 месяцев

Сообщений: 112

Симпатии: 6

ребята. скорость отдачи выше 70 не поднимается. так что сильно не ругайтесь)

Создавать темы 02-Янв-2016 12:49

[Профиль]  [ЛС] 

beck13

Стаж: 6 лет 4 месяца

Сообщений: 64

Симпатии: 2

Это не 4-Сезон!!!

Информация от Страх


Без всяких спойлеров

Создавать темы 02-Янв-2016 14:26

[Профиль]  [ЛС] 

beck13

Стаж: 6 лет 4 месяца

Сообщений: 64

Симпатии: 2

Источник: http://www.1tv.ru/cinema/ts=898

Создавать темы 02-Янв-2016 14:50

[Профиль]  [ЛС] 

Александр Гузов ®

Стаж: 4 года 9 месяцев

Сообщений: 112

Симпатии: 6

964640Это не 4-Сезон!!!
Я и не спорю что это "Сезон". Поэтому я и написал что серия нулевая... я вчера эту серию списал с телевизионной трансляции и просто решил поделиться с теми у кого нет первого канала. Так что кому надо налетайте)

Информация от Страх


спасибо за релиз

Создавать темы 02-Янв-2016 14:58

[Профиль]  [ЛС] 

Страх

Стаж: 4 года

Сообщений: 1131

Симпатии: 448

beck13, пилотно праздничная серия. Но если вы смотрели, то всё заканчивается так как продолжение 3 его, то есть это и есть 4ый сезон. не читайте всякие левые статьи. Суб сезон называют про такое, дополнение к 4 сезону.

Создавать темы 02-Янв-2016 19:56

[Профиль]  [ЛС] 

Топик был перенесен из форума Сезон 2015-2016 в форум HD
saidali

Создавать темы 13-Янв-2016 11:51

 
Показать сообщения:    
Ответить на тему

Текущее время: 19-Окт 23:23

Часовой пояс: UTC + 5



Вы не можете начинать темы
Вы не можете отвечать на сообщения
Вы не можете редактировать свои сообщения
Вы не можете удалять свои сообщения
Вы не можете голосовать в опросах
Вы не можете прикреплять файлы к сообщениям
Вы не можете скачивать файлы