Шерлок: Безобразная невеста / Sherlock: The Abominable Bride (Дуглас МакКиннон) [2016, детектив, драма, комедия, HDTVRip] (DUB : Первый канал)

Ответить на тему
 

mp1988 ®

Стаж: 6 лет 8 месяцев

Сообщений: 607

Симпатии: 971

Шерлок: Безобразная невеста / Sherlock: The Abominable Bride-- Год выпуска: 2016
Страна: Великобритания
Жанр: детектив, драма, комедия
Продолжительность: 01:30:00
Перевод: Полное дублирование Первый канал
Режиссёр: Дуглас МакКиннон
В ролях: Бенедикт Камбербэтч, Мартин Фриман, Уна Стаббс, Эндрю Скотт, Лара Пулвер, Лу Брили, Руперт Грейвз, Марк Гатисс, Винетт Робинсон, Джонатан Арис
Описание: Отдельный рождественский эпизод сериала. Действие фильма происходит в 1895 года в Лондоне. К Шерлоку за помощью обращается некий Томас Риколетти. Он увидел свою жену в старом свадебном платье и очень удивился. А вскоре узнал, что она покончила с собой всего за несколько часов до этой странной встречи. Получается, что он видел призрак жены и, что еще хуже, теперь призрак миссис Риколетти бродит по улицам не в силах утолить жажду мести. Перемещаясь от скрытой в тумане станции «Лаймхаус» до развалин старой церкви Холмс, Ватсон и их друзья должны проявить свои лучшие качества в схватке с врагом, на первый взгляд связанным с потусторонними силами, чтобы узнать шокирующую правду о безобразной невесте!
Качество: HDTVRip
Формат: AVI
Видео кодек: XviD
Аудио кодек: MP3
Видео: 1 901 Kbps , 720x400
Аудио: MP3 , 128 Кбит/с, 2 channels, 48.0 KHz

MediaInfo

General
Complete name : D:\Downloads\Шерлок Безобразная невеста.HDTVRip.avi
Format : AVI
Format/Info : Audio Video Interleave
File size : 1.27 GiB
Duration : 1h 29mn
Overall bit rate : 2 039 Kbps
Writing application : transcode-1.1.5
Video
ID : 0
Format : MPEG-4 Visual
Codec ID : DX50
Codec ID/Hint : DivX 5
Duration : 1h 29mn
Bit rate : 1 901 Kbps
Width : 720 pixels
Height : 400 pixels
Display aspect ratio : 16:9
Frame rate : 25.000 fps
Color space : YUV
Chroma subsampling : 4:2:0
Compression mode : Lossy
Bits/(Pixel*Frame) : 0.264
Stream size : 1.19 GiB (93%)
Audio
ID : 1
Format : MPEG Audio
Format version : Version 1
Format profile : Layer 3
Mode : Joint stereo
Mode extension : MS Stereo
Codec ID : 55
Codec ID/Hint : MP3
Duration : 1h 29mn
Bit rate mode : Constant
Bit rate : 128 Kbps
Channel(s) : 2 channels
Sampling rate : 48.0 KHz
Compression mode : Lossy
Stream size : 81.8 MiB (6%)
Alignment : Split accross interleaves
Interleave, duration : 40 ms (1.00 video frame)
Interleave, preload duratio : 500 ms
Writing library : LAME3.98.2

Скриншоты





Последний раз редактировалось: mp1988 (2016-09-14 15:46), всего редактировалось 4 раз(а)

Создавать темы 02-Янв-2016 12:45

[Профиль]  [ЛС] 

mp1988 ®

Стаж: 6 лет 8 месяцев

Сообщений: 607

Симпатии: 971

Модераторы исправьте в шапке режиссера, я ошибся

Комментарий от Zab


Исправил.

Создавать темы 02-Янв-2016 13:11

[Профиль]  [ЛС] 

TheBestBeXa

Стаж: 2 года 2 месяца

Сообщений: 2

Симпатии: 1

долго ждал

Создавать темы 12-Янв-2016 13:00

[Профиль]  [ЛС] 

Топик был перенесен из форума Сезон 2015-2016 в форум Минисериалы и Веб-сериалы
saidali

Создавать темы 13-Янв-2016 11:50

 
Показать сообщения:    
Ответить на тему

Текущее время: 19-Окт 01:35

Часовой пояс: UTC + 5



Вы не можете начинать темы
Вы не можете отвечать на сообщения
Вы не можете редактировать свои сообщения
Вы не можете удалять свои сообщения
Вы не можете голосовать в опросах
Вы не можете прикреплять файлы к сообщениям
Вы не можете скачивать файлы