Шерлок: Безобразная невеста / Sherlock: The Abominable Bride (Дуглас Макиннон) [2016г., триллер, драма, криминал, детектив, WEBRip-AVC] [Dub] (Первый канал) + Original (Eng)

Ответить на тему
 

kat222000 ®

Стаж: 6 лет 7 месяцев

Сообщений: 608

Симпатии: 1055

Шерлок: Безобразная невеста | Sherlock: The Abominable Bride«Лучший сыщик 21-го века» -Страна: Великобритания
Жанр: триллер, драма, криминал, детектив
Год выпуска: 2016
Продолжительность: 01:30:00
Перевод: Профессиональный (дублированый) | Первый канал
Оригинальная дорожка: English
Субтитры: русские, английские (два вида - стилизованные, стандартные)-Режиссер: Дуглас Макиннон-В ролях: Бенедикт Камбербэтч, Мартин Фриман, Уна Стаббс, Лу Брили, Руперт Грэйвз, Джонатан Арис, Аманда Эббингтон, Наташа О’Кифф-Описание:Отдельный рождественский эпизод сериала. Действие фильма происходит в 1895 года в Лондоне. К Шерлоку за помощью обращается некий Томас Риколетти. Он увидел свою жену в старом свадебном платье и очень удивился. А вскоре узнал, что она покончила с собой всего за несколько часов до этой странной встречи. Получается, что он видел призрак жены и, что еще хуже, теперь призрак миссис Риколетти бродит по улицам не в силах утолить жажду мести. Перемещаясь от скрытой в тумане станции «Лаймхаус» до развалин старой церкви Холмс, Ватсон и их друзья должны проявить свои лучшие качества в схватке с врагом, на первый взгляд связанным с потусторонними силами, чтобы узнать шокирующую правду о безобразной невесте!-Возраст: зрителям, достигшим 12 лет-рейтинг MPAA: детям до 13 лет просмотр не желателен- -Качество видео: WEBRip-AVC (видеоряд русифицированный, чистый: логотипов и прочего ТВ мусора - нет)
Формат видео: MKV
Видео кодек: AVC
Аудио кодек: AC3
Видео: 1024x576 (16:9), 25 fps, AVC ~1 800 kbps avg, 0.122 bit/pixel
Аудио 1: 48 kHz, AC3 Dolby Digital, 3/2 (L,C,R,l,r) + LFE ch, ~384.00 kbps avg (Русский | Первый канал)
Аудио 2: 48 kHz, AC3 Dolby Digital, 3/2 (L,C,R,l,r) + LFE ch, ~384.00 kbps avg (English | Original)-

〤 ОтчетМедиаИнфо 〤

Общее
Уникальный идентификатор : 227115263269488431245923776006018195465 (0xAADCCF02C1A59663B0C414C384D26009)
Формат : Matroska
Версия формата : Version 2
Размер файла : 1,60 Гбайт
Длительность : 1 ч. 29 м.
Общий поток : 2570 Кбит/сек
Дата кодирования : UTC 2016-01-02 11:44:10
Программа кодирования : mkvmerge v7.9.0 ('Birds') 64bit
Библиотека кодирования : libebml v1.3.1 + libmatroska v1.4.2
Длительность : 01:28:27.300000000
NUMBER_OF_FRAMES : 1472
NUMBER_OF_BYTES : 54391
_STATISTICS_WRITING_APP : mkvmerge v7.9.0 ('Birds') 64bit
_STATISTICS_WRITING_DATE_UTC : 2016-01-02 11:44:10
_STATISTICS_TAGS : BPS Длительность NUMBER_OF_FRAMES NUMBER_OF_BYTES
Видео
Идентификатор : 1
Формат : AVC
Формат/Информация : Advanced Video Кодек
Профиль формата : High@L4.1
Параметр CABAC формата : Да
Параметр ReFrames формата : 9 кадров
Идентификатор кодека : V_MPEG4/ISO/AVC
Длительность : 1 ч. 29 м.
Битрейт : 1800 Кбит/сек
Ширина : 1024 пикселя
Высота : 576 пикселей
Соотношение сторон : 16:9
Режим частоты кадров : Постоянный
Частота кадров : 25,000 кадров/сек
Цветовое пространство : YUV
Субдискретизация насыщенности : 4:2:0
Битовая глубина : 8 бит
Тип развёртки : Прогрессивная
Бит/(Пиксели*Кадры) : 0.122
Размер потока : 1,09 Гбайт (68%)
Библиотека кодирования : x264 core 130 r2273 b3065e6
Настройки программы : cabac=1 / ref=9 / deblock=1:-1:-1 / analyse=0x3:0x133 / me=umh / subme=11 / psy=1 / psy_rd=1.00:0.20 / mixed_ref=1 / me_range=32 / chroma_me=1 / trellis=2 / 8x8dct=1 / cqm=0 / deadzone=21,11 / fast_pskip=0 / chroma_qp_offset=-3 / threads=12 / lookahead_threads=2 / sliced_threads=0 / nr=0 / decimate=0 / interlaced=0 / bluray_compat=0 / constrained_intra=0 / bframes=9 / b_pyramid=2 / b_adapt=2 / b_bias=0 / direct=3 / weightb=1 / open_gop=0 / weightp=2 / keyint=250 / keyint_min=25 / scenecut=40 / intra_refresh=0 / rc=2pass / mbtree=0 / bitrate=1800 / ratetol=1.0 / qcomp=0.60 / qpmin=0 / qpmax=69 / qpstep=4 / cplxblur=20.0 / qblur=0.5 / ip_ratio=1.40 / pb_ratio=1.30 / aq=1:1.00
Язык : English
Default : Да
Forced : Нет
Длительность : 01:29:17.560000000
NUMBER_OF_FRAMES : 133939
NUMBER_OF_BYTES : 1205208690
_STATISTICS_WRITING_APP : mkvmerge v7.9.0 ('Birds') 64bit
_STATISTICS_WRITING_DATE_UTC : 2016-01-02 11:44:10
_STATISTICS_TAGS : BPS Длительность NUMBER_OF_FRAMES NUMBER_OF_BYTES
Аудио #1
Идентификатор : 2
Формат : AC-3
Формат/Информация : Audio Coding 3
Расширение режима : CM (complete main)
Параметр Endianness формата : Big
Идентификатор кодека : A_AC3
Длительность : 1 ч. 29 м.
Вид битрейта : Постоянный
Битрейт : 384 Кбит/сек
Каналы : 6 каналов
Расположение каналов : Front: L C R, Side: L R, LFE
Частота : 48,0 КГц
Метод сжатия : С потерями
Размер потока : 245 Мбайт (15%)
Заголовок : DUB
Язык : Russian
Default : Да
Forced : Нет
Аудио #2
Идентификатор : 3
Формат : AC-3
Формат/Информация : Audio Coding 3
Расширение режима : CM (complete main)
Параметр Endianness формата : Big
Идентификатор кодека : A_AC3
Длительность : 1 ч. 29 м.
Вид битрейта : Постоянный
Битрейт : 384 Кбит/сек
Каналы : 6 каналов
Расположение каналов : Front: L C R, Side: L R, LFE
Частота : 48,0 КГц
Метод сжатия : С потерями
Размер потока : 245 Мбайт (15%)
Заголовок : Original
Язык : English
Default : Нет
Forced : Нет
Текст #1
Идентификатор : 4
Формат : ASS
Идентификатор кодека : S_TEXT/ASS
Идентификатор кодека/Информация : Advanced Sub Station Alpha
Метод сжатия : Без потерь
Заголовок : Stylized Rus (.ass)
Язык : Russian
Default : Нет
Forced : Нет
Текст #2
Идентификатор : 5
Формат : UTF-8
Идентификатор кодека : S_TEXT/UTF8
Идентификатор кодека/Информация : UTF-8 Plain Text
Заголовок : Standart Rus (.srt)
Язык : Russian
Default : Нет
Forced : Нет
Текст #3
Идентификатор : 6
Формат : ASS
Идентификатор кодека : S_TEXT/ASS
Идентификатор кодека/Информация : Advanced Sub Station Alpha
Метод сжатия : Без потерь
Заголовок : Stylized Eng (.ass)
Язык : English
Default : Нет
Forced : Нет
Текст #4
Идентификатор : 7
Формат : UTF-8
Идентификатор кодека : S_TEXT/UTF8
Идентификатор кодека/Информация : UTF-8 Plain Text
Заголовок : Standart Eng (.srt)
Язык : English
Default : Нет
Forced : Нет
-

〤 Скриншоты 〤



- - -© Оформление by kat222000

Создавать темы 03-Янв-2016 00:59

[Профиль]  [ЛС] 

Mrblack

Стаж: 6 лет 6 месяцев

Сообщений: 247

Симпатии: 52

Так полный 4 сезон через год будет ( его ещё не начали снимать ) . А это просто фильм . Во всём виноват Хоббит и занятость актёров .

Создавать темы 20-Янв-2016 01:51

[Профиль]  [ЛС] 
Показать сообщения:    
Ответить на тему

Текущее время: 22-Ноя 02:19

Часовой пояс: UTC + 5



Вы не можете начинать темы
Вы не можете отвечать на сообщения
Вы не можете редактировать свои сообщения
Вы не можете удалять свои сообщения
Вы не можете голосовать в опросах
Вы не можете прикреплять файлы к сообщениям
Вы не можете скачивать файлы