Призрачный мир мириады цветов / Бескрайний мир фантомов / Musaigen no Phantom World [TV] [13 из 13] [без хардсаба] [RUS(ext),JAP+SUB) [2016 г., экшен, фэнтези, HDTVRip] [720p]

Страницы :  1, 2  След.

Ответить на тему
 

Азиз87 ®

Стаж: 4 года 11 месяцев

Сообщений: 752

Симпатии: 143

-
Страна: Япония
Год выпуска: 2016
Жанр:экшен, фэнтези
Продолжительность: >12 эп. по 25 мин
Режиссер: Исихара Тацуя
Студия: Kyoto Animation-Перевод:
  • русские субтитры: от [Ambiente] & [alkopone & red_star]
-Описание:
Недалекое будущее. Мир человеческого воображения. Разноплановые призраки и монстры уже не кажутся такой выдумкой, ведь они заполонили этот мир и стали жить в нем, как в родном. Таких неземных товарищей вскоре окрестили «фантомами». Но чудеса на сим не закончились. С появлением фантомов люди также подверглись изменениям. Так, в один прекрасный день, взрыв на станции, производящей генетически модифицированные продукты, привел к развитию у некоторой части населения сверхъестественных способностей, которые позволили им определять «фантомов» и бороться с ними.
Главный герой, Харухико Ичиджо, — обычный старшеклассник из академии Осия. Но обычным он может показаться только в школе. За ее же пределами Харухико — обладатель способности, с помощью которой он может запечатывать фантомов. Так уж случилось, что ему повезло быть не единственным в своей школе, кто борется с нечистью, разбавляя свою размеренную жизнь опасными схватками. Ими также являются — знойная красавица, обладающая силой «пяти элементов», Май Каваками, способная в буквальном смысле пожирать фантомов Рэйна Изуми, и боец-одиночка Който Минасэ. Все они до поры до времени живут своей повседневной жизнью, пока не узнают о крупной организации, которая пользуется последствиями инцидента, породившего людей нового, фантомного мира. World Art-Качество: HDTVRip | Формат видео: MP4
Видео: AVC (8 bits), 1280х720, ~3 400 kbps, 23.976 fps
Аудио Japanese: AAC, ~192 kbps, 48.0 KHz, 2.0 ch
Аудио Russian: Vorbis, ~256 kbps, 48.0 KHz, 2.0 ch - Ancord,Jade & Trina_D

Подробные тех. данные:

General
Complete name :[Leopard-Raws] Musaigen no Phantom World - 01 RAW (ABC 1280x720 x264 AAC).mp4
Format : MPEG-4
Format profile : Base Media
Codec ID : isom
File size : 630 MiB
Duration : 23mn 59s
Overall bit rate mode : Variable
Overall bit rate : 3 674 Kbps
Encoded date : UTC 2016-01-06 19:59:38
Tagged date : UTC 2016-01-06 19:59:38
Video
ID : 1
Format : AVC
Format/Info : Advanced Video Codec
Format profile : High@L4.1
Format settings, CABAC : Yes
Format settings, ReFrames : 4 frames
Codec ID : avc1
Codec ID/Info : Advanced Video Coding
Duration : 23mn 59s
Bit rate : 3 478 Kbps
Maximum bit rate : 18.5 Mbps
Width : 1 280 pixels
Height : 720 pixels
Display aspect ratio : 16:9
Frame rate mode : Constant
Frame rate : 23.976 fps
Color space : YUV
Chroma subsampling : 4:2:0
Bit depth : 8 bits
Scan type : Progressive
Bits/(Pixel*Frame) : 0.157
Stream size : 597 MiB (95%)
Title : 264:fps=23.976@GPAC0.5.1-DEV-rev4929
Writing library : x264 core 129 r2245+729M 1a52e03
Encoding settings : cabac=1 / ref=4 / deblock=1:1:-1 / analyse=0x3:0x113 / me=umh / subme=9 / psy=1 / fade_compensate=0.00 / psy_rd=1.00:0.00 / mixed_ref=1 / me_range=24 / chroma_me=1 / trellis=2 / 8x8dct=1 / cqm=0 / deadzone=21,11 / fast_pskip=1 / chroma_qp_offset=-2 / threads=8 / lookahead_threads=1 / sliced_threads=0 / nr=0 / decimate=1 / interlaced=0 / bluray_compat=0 / constrained_intra=0 / fgo=0 / bframes=9 / b_pyramid=2 / b_adapt=2 / b_bias=0 / direct=1 / weightb=1 / open_gop=0 / weightp=2 / keyint=240 / keyint_min=24 / scenecut=40 / intra_refresh=0 / rc=crf / mbtree=0 / crf=18.5 / qcomp=0.72 / qpmin=0 / qpmax=69 / qpstep=4 / ip_ratio=1.40 / pb_ratio=1.30 / aq=1:0.85
Encoded date : UTC 2016-01-06 19:59:38
Tagged date : UTC 2016-01-06 19:59:41
Color range : Limited
Color primaries : BT.709
Transfer characteristics : BT.709
Matrix coefficients : BT.709
Audio
ID : 2
Format : AAC
Format/Info : Advanced Audio Codec
Format profile : LC
Codec ID : 40
Duration : 23mn 59s
Bit rate mode : Variable
Bit rate : 192 Kbps
Maximum bit rate : 225 Kbps
Channel(s) : 2 channels
Channel positions : Front: L R
Sampling rate : 48.0 KHz
Compression mode : Lossy
Stream size : 32.9 MiB (5%)
Language : Japanese
Encoded date : UTC 2016-01-06 18:14:37
Tagged date : UTC 2016-01-06 19:59:41

Скриншоты:



Последний раз редактировалось: Азиз87 (2016-04-04 01:52), всего редактировалось 18 раз(а)

Создавать темы 08-Янв-2016 08:36

[Профиль]  [ЛС] 

SNIL

Стаж: 5 лет 9 месяцев

Сообщений: 2624

Симпатии: 341

Азиз87, Пока воздержитесь от релизов! Подождём новостей про востанавления сервера!
Оформление на всякий пожарный сохраните у себя!

Комментарий от SNIL


Ждём новостей!

Создавать темы 08-Янв-2016 09:43

[Профиль]  [ЛС] 

Азиз87 ®

Стаж: 4 года 11 месяцев

Сообщений: 752

Симпатии: 143

Нужно настраивать блокер чтобы статистика и коннект к пирам проходил. Печаль.
Вроде 163.172.10.152:443 он. Раздача как всегда с 09*00 утра.

Создавать темы 10-Янв-2016 01:14

[Профиль]  [ЛС] 

Азиз87 ®

Стаж: 4 года 11 месяцев

Сообщений: 752

Симпатии: 143

2.
Спасибо большое Alex_38 за возможность и раздачу материала остальным пользователям в это не легкое время для трекера. СПС еще раз.

Создавать темы 16-Янв-2016 12:28

[Профиль]  [ЛС] 

Alex_38

Стаж: 5 лет 7 месяцев

Сообщений: 336

Симпатии: 37

Азиз87, вам спасибо за онгоинги с присутствующей японской дорожкой)

Создавать темы 17-Янв-2016 09:41

[Профиль]  [ЛС] 

Азиз87 ®

Стаж: 4 года 11 месяцев

Сообщений: 752

Симпатии: 143

4.

Создавать темы 30-Янв-2016 13:06

[Профиль]  [ЛС] 

Азиз87 ®

Стаж: 4 года 11 месяцев

Сообщений: 752

Симпатии: 143

5.

Создавать темы 05-Фев-2016 12:59

[Профиль]  [ЛС] 

Азиз87 ®

Стаж: 4 года 11 месяцев

Сообщений: 752

Симпатии: 143

6.

Создавать темы 15-Фев-2016 10:51

[Профиль]  [ЛС] 

Азиз87 ®

Стаж: 4 года 11 месяцев

Сообщений: 752

Симпатии: 143

7. Серия няшек.

Создавать темы 23-Фев-2016 11:28

[Профиль]  [ЛС] 

Азиз87 ®

Стаж: 4 года 11 месяцев

Сообщений: 752

Симпатии: 143

8. Конец убил напрочь.

Создавать темы 29-Фев-2016 12:15

[Профиль]  [ЛС] 

Азиз87 ®

Стаж: 4 года 11 месяцев

Сообщений: 752

Симпатии: 143

9. Что-то тянут с данным тайтлом на анидабе.

Создавать темы 14-Мар-2016 16:35

[Профиль]  [ЛС] 

Азиз87 ®

Стаж: 4 года 11 месяцев

Сообщений: 752

Симпатии: 143

10/11 с озвучкой от Анилибрии.

Создавать темы 24-Мар-2016 14:49

[Профиль]  [ЛС] 

Азиз87 ®

Стаж: 4 года 11 месяцев

Сообщений: 752

Симпатии: 143

Завтра с утра будет 12 серия с озвучкой от Анилибрии. Финальная 13 серия как и последние 10-12 выйду со временем появления озвучки от Анидаба.

Создавать темы 26-Мар-2016 22:20

[Профиль]  [ЛС] 

Азиз87 ®

Стаж: 4 года 11 месяцев

Сообщений: 752

Симпатии: 143

12.

Создавать темы 27-Мар-2016 07:00

[Профиль]  [ЛС] 

Азиз87 ®

Стаж: 4 года 11 месяцев

Сообщений: 752

Симпатии: 143

13. Конец.

Создавать темы 04-Апр-2016 01:52

[Профиль]  [ЛС] 
Показать сообщения:    
Ответить на тему

Текущее время: 23-Окт 09:19

Часовой пояс: UTC + 5



Вы не можете начинать темы
Вы не можете отвечать на сообщения
Вы не можете редактировать свои сообщения
Вы не можете удалять свои сообщения
Вы не можете голосовать в опросах
Вы не можете прикреплять файлы к сообщениям
Вы не можете скачивать файлы