[Тимати Баклажан, 2015, Россия, Хип-хоп, R'n'B, HDRip]

Ответить на тему
 

ИЛЬЯС АЛЛАЯРОВ ®

Стаж: 2 года 7 месяцев

Сообщений: 13

Симпатии: 2

Тимати Баклажан/Timati Baklajan
Страна: Россия
Жанр: Хип-хоп, R'n'B
Год выпуска: 2015
Продолжительность: 00:03:44
Качество видео: HD
Формат видео: MP4
Видео: Video: MPEG4 Video (H264) 1280x720 25fps 2401kbps
Аудио: Audio: AAC 44100Hz stereo 128kbps

MediaInfo

Format : MPEG-4
Codec ID : M4V
File size : 67.7 MiB
Duration : 3mn 44s
Overall bit rate mode : Variable
Overall bit rate : 2 535 Kbps
Writing application : Lavf54.22.103
Video
ID : 1
Format : AVC
Format/Info : Advanced Video Codec
Format profile : [email protected]
Format settings, CABAC : No
Format settings, ReFrames : 3 frames
Format settings, GOP : M=1, N=25
Codec ID : avc1
Codec ID/Info : Advanced Video Coding
Duration : 3mn 44s
Bit rate : 2 459 Kbps
Width : 1 280 pixels
Height : 720 pixels
Display aspect ratio : 16:9
Frame rate mode : Constant
Frame rate : 25.000 fps
Color space : YUV
Chroma subsampling : 4:2:0
Bit depth : 8 bits
Scan type : Progressive
Bits/(Pixel*Frame) : 0.107
Stream size : 64.1 MiB (95%)
Writing library : x264 core 125
Audio
ID : 2
Format : AAC
Format/Info : Advanced Audio Codec
Format profile : LC
Codec ID : 40
Duration : 3mn 43s
Duration_LastFrame : -1ms
Bit rate mode : Variable
Bit rate : 129 Kbps
Maximum bit rate : 131 Kbps
Channel(s) : 2 channels
Channel positions : Front: L R
Sampling rate : 44.1 KHz
Compression mode : Lossy
Stream size : 3.43 MiB (5%)

Скриншоты



Последний раз редактировалось: ИЛЬЯС АЛЛАЯРОВ (2016-02-03 13:24), всего редактировалось 3 раз(а)

Создавать темы 08-Янв-2016 14:36

[Профиль]  [ЛС] 
Показать сообщения:    
Ответить на тему

Текущее время: 12-Дек 06:02

Часовой пояс: UTC + 5



Вы не можете начинать темы
Вы не можете отвечать на сообщения
Вы не можете редактировать свои сообщения
Вы не можете удалять свои сообщения
Вы не можете голосовать в опросах
Вы не можете прикреплять файлы к сообщениям
Вы не можете скачивать файлы