Семейка Крудс. Начало / Dawn of the Croods / 1 сезон / серии 1-13 из 13 (Алекс Альмагер, Кристал Чесни, Брайан Хэтфилд) [2015, мультфильм, семейный, WEBRip] | MVO:NewStudio

Ответить на тему
 

Sunnat1999 ®

Стаж: 4 года 7 месяцев

Сообщений: 756

Симпатии: 416

Семейка Крудс. Начало / Dawn of the CroodsСерии: 1-13 из 13-- Год выпуска: 2015
Производство: США
Жанр: мультфильм, семейный
Перевод: Профессиональный многоголосый закадровый [NewStudio]
Продолжительность: ~00:24:00 серия
Режиссёр: Алекс Альмагер, Кристал Чесни, Брайан Хэтфилд-В ролях: Дэн Милано, Кри Саммер, Стефани Николь Лемелин, А.Дж. Локасцио, Лорейн Ньюмен-Описание: Мультсериал о небезызвестной семейке Крудс. Землетрясение уничтожило дом доисторической семьи, и теперь им придётся искать другое пристанище. А вокруг новый и опасный мир! Только вместе они смогут выжить и достичь своей цели…-Доп. информация:
 
-Качество: WEBRip
Формат: AVI
Видео кодек: XviD
Аудио кодек: AC3
Видео: XviD, 1500 Кбит/с, 720x400
Аудио: Русский, английский (MP3, 2 ch, 128 Кбит/с)-ВНИМАНИЕ! РАЗДАЧА ВЕДЁТСЯ ПУТЁМ ДОБАВЛЕНИЯ НОВЫХ СЕРИЙ!
ДОБАВЛЕНЫ 12-13 СЕРИИ, ПЕРЕКАЧАЙТЕ ПОЖАЛУЙСТА ТОРРЕНТ!

Как обновить торрент

Когда раздача ведётся путём добавления новых серий, при каждом добавлении создётся новый торрент. Чтобы начать докачку новой серии, пользователям необходимо сделать следующее:
(1) остановить скачивание,
(2) удалить старый торрент у себя из клиента (старые серии удалять не надо),
(3) скачать новый торрент и запустить его у себя в клиенте вместо старого, при этом указать клиенту путь в старую папку, куда и должно происходить скачивание новых серий.
Ваш клиент при этом должен произвести хеширование (проверку) старой папки (если не производит сам - помогите ему сделать это), и будет докачивать только те серии, которых у вас ещё нет. Старые серии при этом не удаляются, а продолжают раздаваться!
Eсли вы уже удалили старые серии, то предотвратить повторную закачку старых серий можно, отжав галочку в соответсвующих местах при запуске нового торрента. По возможности, желательно не удалять старые серии как можно дольше, чтобы релизёр не столько продолжал раздавать старые серии, а смог сконцентрироваться на новых.

MI

Общее
Полное имя : \Dawn.of.the.Croods.s01.WEBRip.NewStudio\Dawn.of.the.Croods.s01e01.WEBRip.NewStudio.TV.avi
Формат : AVI
Формат/Информация : Audio Video Interleave
Размер файла : 300 Мбайт
Продолжительность : 23 м.
Общий поток : 1771 Кбит/сек
Программа кодирования : VirtualDubMod 1.5.10.2 (build 2540/release)
Библиотека кодирования : VirtualDubMod build 2540/release
Видео
Идентификатор : 0
Формат : MPEG-4 Visual
Профиль формата : Advanced [email protected]
Параметр BVOP формата : 2
Параметр QPel формата : Нет
Параметр GMC формата : Без точки перехода
Параметр матрицы формата : Default (MPEG)
Идентификатор кодека : XVID
Идентификатор кодека/Подсказка : XviD
Продолжительность : 23 м.
Битрейт : 1501 Кбит/сек
Ширина : 720 пикселей
Высота : 400 пикселей
Соотношение сторон : 16:9
Частота кадров : 23,976 кадра/сек
Цветовое пространство : YUV
Субдискретизация насыщенности : 4:2:0
Битовая глубина : 8 бит
Тип развёртки : Прогрессивная
Метод сжатия : С потерями
Бит/(Пиксели*Кадры) : 0.217
Размер потока : 254 Мбайт (85%)
Библиотека кодирования : XviD 73
Аудио #1
Идентификатор : 1
Формат : MPEG Audio
Версия формата : Version 1
Профиль формата : Layer 3
Режим : Joint stereo
Расширение режима : MS Stereo
Идентификатор кодека : 55
Идентификатор кодека/Подсказка : MP3
Продолжительность : 23 м.
Вид битрейта : Постоянный
Битрейт : 128 Кбит/сек
Каналы : 2 канала
Частота : 48,0 КГц
Метод сжатия : С потерями
Размер потока : 21,7 Мбайт (7%)
Выравнивание : Соединение по промежуткам
Продолжительность промежутка : 42 мс. (1,00 видеокадр)
Время предзагрузки промежутка : 504 мс.
Аудио #2
Идентификатор : 2
Формат : MPEG Audio
Версия формата : Version 1
Профиль формата : Layer 3
Режим : Joint stereo
Расширение режима : MS Stereo
Идентификатор кодека : 55
Идентификатор кодека/Подсказка : MP3
Продолжительность : 23 м.
Вид битрейта : Постоянный
Битрейт : 128 Кбит/сек
Каналы : 2 канала
Частота : 48,0 КГц
Метод сжатия : С потерями
Размер потока : 21,7 Мбайт (7%)
Выравнивание : Соединение по промежуткам
Продолжительность промежутка : 42 мс. (1,00 видеокадр)
Время предзагрузки промежутка : 504 мс.
Библиотека кодирования : LAME3.90.3
Скриншоты


Последний раз редактировалось: Sunnat1999 (2016-05-27 10:33), всего редактировалось 4 раз(а)

Создавать темы 09-Янв-2016 07:25

[Профиль]  [ЛС] 

Sunnat1999 ®

Стаж: 4 года 7 месяцев

Сообщений: 756

Симпатии: 416

ДОБАВЛЕНА 10 СЕРИЯ, ПЕРЕКАЧАЙТЕ ПОЖАЛУЙСТА ТОРРЕНТ!

Создавать темы 09-Янв-2016 07:26

[Профиль]  [ЛС] 

atgerkin

Стаж: 6 лет 9 месяцев

Сообщений: 247

Симпатии: 78

Ссылка на закачку:
http://tas-ix.net/dl.php?id=89589

Создавать темы 09-Янв-2016 07:46

[Профиль]  [ЛС] 

Sunnat1999 ®

Стаж: 4 года 7 месяцев

Сообщений: 756

Симпатии: 416

ДОБАВЛЕНА 11 СЕРИЯ, ПЕРЕКАЧАЙТЕ ПОЖАЛУЙСТА ТОРРЕНТ!

Создавать темы 09-Янв-2016 17:07

[Профиль]  [ЛС] 

Sunnat1999 ®

Стаж: 4 года 7 месяцев

Сообщений: 756

Симпатии: 416

ДОБАВЛЕНЫ ЗАКЛЮЧИТЕЛЬНЫЕ 12-13 СЕРИИ, ПЕРЕКАЧАЙТЕ ПОЖАЛУЙСТА ТОРРЕНТ!

Создавать темы 10-Янв-2016 08:40

[Профиль]  [ЛС] 
Показать сообщения:    
Ответить на тему

Текущее время: 25-Сен 11:19

Часовой пояс: UTC + 5



Вы не можете начинать темы
Вы не можете отвечать на сообщения
Вы не можете редактировать свои сообщения
Вы не можете удалять свои сообщения
Вы не можете голосовать в опросах
Вы не можете прикреплять файлы к сообщениям
Вы не можете скачивать файлы