Магазинчик сладостей / Дешёвые Сладости-Радости / Dagashi Kashi (Такаянаги Сигэхито) [TV] [12 из 12] [Без хардсаба] [RUS(ext), JAP+SUB] [2016 г., комедия, повседневность, романтика, школа, HDTVRip] [720p]

Страницы :  1, 2  След.

Ответить на тему
 

Азиз87 ®

Стаж: 5 лет 1 месяц

Сообщений: 752

Симпатии: 143

-
Страна: Япония
Год выпуска: 2016
Жанр: комедия, повседневность, романтика, школа
Продолжительность: >12 эп. по 25 мин
Режиссер: Такаянаги Сигэхито
Студия: Feel-Перевод:
  • русские субтитры: [Brave & Xander] (внешним файлом)
  • русские субтитры: [YakuSub Studio] (внешним файлом)
-Описание:
В жизни у каждого человека есть место для мечты. А если тебе 15 лет и ты еще не знаешь, кем тебе хочется стать в жизни, то и вовсе голова идет кругом от профессии актера, модели или художника. Наш герой — Коконоицу Шикада, избрал путь мангаки. Он каждую ночь рисует и совершенствует свои навыки, но он даже не подозревает, что родители уже давно подготовили ему другую краьеру. У отца Коконоицу есть маленький кондитерский магазин, известный как самый дешевый магазинчик сладостейй. И он хочет, чтобы сын также проникся его бизнесом, поэтому вскоре этот бизнес будет принадлежать Коконоицу.
Парень в шоке от такого предложения, ведь, если он забросит рисование, в пользу работе, его мечта никогда не сбудется. А уж тем более, скучное и размеренное управление магазином — это явно не его конек. Но отец у парня тоже не лыком шит, он просит помочь ему с кондитерской, за одну услугу - материально помочь в его стремлении стать мангакой. Невольно, Коконоицу соглашается, позже он встречает действительно удивительную девушку, которая вдохновила его на эксперименты в работе, но это уже совсем другая история. World Art-Качество: HDTVRip | Формат видео: MP4
Видео: AVC (8 bits), 1280х720, ~1 700 kbps, 23.976 fps
Аудио Japanese: AAC, ~192 kbps, 48.0 KHz, 2.0 ch
Аудио Russian #1: AC3, ~192 kbps, 48.0 KHz, 2.0 ch - Nazel & Freya & Komuro (Animedia)
Аудио Russian #2: AC3, ~192 kbps, 48.0 KHz, 2.0 ch - Mikrobelka & WhiteCroW (Anilibria)

Подробные тех. данные:

General
Complete name : [Leopard-Raws] Dagashi Kashi - 01 RAW (TBS 1280x720 x264 AAC).mp4
Format : MPEG-4
Format profile : Base Media
Codec ID : isom
File size : 332 MiB
Duration : 24mn 29s
Overall bit rate mode : Variable
Overall bit rate : 1 892 Kbps
Encoded date : UTC 2016-01-08 09:14:01
Tagged date : UTC 2016-01-08 09:14:01
Video
ID : 1
Format : AVC
Format/Info : Advanced Video Codec
Format profile : [email protected]
Format settings, CABAC : Yes
Format settings, ReFrames : 4 frames
Codec ID : avc1
Codec ID/Info : Advanced Video Coding
Duration : 24mn 29s
Bit rate : 1 696 Kbps
Maximum bit rate : 13.8 Mbps
Width : 1 280 pixels
Height : 720 pixels
Display aspect ratio : 16:9
Frame rate mode : Constant
Frame rate : 23.976 fps
Color space : YUV
Chroma subsampling : 4:2:0
Bit depth : 8 bits
Scan type : Progressive
Bits/(Pixel*Frame) : 0.077
Stream size : 297 MiB (90%)
Title : 264:[email protected]
Writing library : x264 core 129 r2245+729M 1a52e03
Encoding settings : cabac=1 / ref=4 / deblock=1:1:-1 / analyse=0x3:0x113 / me=umh / subme=9 / psy=1 / fade_compensate=0.00 / psy_rd=1.00:0.00 / mixed_ref=1 / me_range=24 / chroma_me=1 / trellis=2 / 8x8dct=1 / cqm=0 / deadzone=21,11 / fast_pskip=1 / chroma_qp_offset=-2 / threads=8 / lookahead_threads=1 / sliced_threads=0 / nr=0 / decimate=1 / interlaced=0 / bluray_compat=0 / constrained_intra=0 / fgo=0 / bframes=9 / b_pyramid=2 / b_adapt=2 / b_bias=0 / direct=1 / weightb=1 / open_gop=0 / weightp=2 / keyint=240 / keyint_min=24 / scenecut=40 / intra_refresh=0 / rc=crf / mbtree=0 / crf=18.5 / qcomp=0.72 / qpmin=0 / qpmax=69 / qpstep=4 / ip_ratio=1.40 / pb_ratio=1.30 / aq=1:0.85
Encoded date : UTC 2016-01-08 09:14:01
Tagged date : UTC 2016-01-08 09:14:03
Color primaries : BT.709
Transfer characteristics : BT.709
Matrix coefficients : BT.709
Audio
ID : 2
Format : AAC
Format/Info : Advanced Audio Codec
Format profile : LC
Codec ID : 40
Duration : 24mn 29s
Bit rate mode : Variable
Bit rate : 192 Kbps
Maximum bit rate : 224 Kbps
Channel count : 2 channels
Channel positions : Front: L R
Sampling rate : 48.0 KHz
Compression mode : Lossy
Stream size : 33.6 MiB (10%)
Language : Japanese
Encoded date : UTC 2016-01-07 18:45:55
Tagged date : UTC 2016-01-08 09:14:03

Скриншоты:



Последний раз редактировалось: Азиз87 (2016-04-21 01:16), всего редактировалось 18 раз(а)

Создавать темы 11-Янв-2016 02:13

[Профиль]  [ЛС] 

Азиз87 ®

Стаж: 5 лет 1 месяц

Сообщений: 752

Симпатии: 143

т.к. не совсем питаю надежды на 2-ой релиз с жанром меха лучше приглядеться к этому сюжету еще.
Все равно делать больше нечего. *Добавление файлов на скачку после 06*00 утра.

Создавать темы 11-Янв-2016 02:16

[Профиль]  [ЛС] 

Азиз87 ®

Стаж: 5 лет 1 месяц

Сообщений: 752

Симпатии: 143

2.

Создавать темы 24-Янв-2016 11:09

[Профиль]  [ЛС] 

Азиз87 ®

Стаж: 5 лет 1 месяц

Сообщений: 752

Симпатии: 143

3. + озвучка от Animedia и Anilibria.

Создавать темы 26-Янв-2016 20:10

[Профиль]  [ЛС] 

Азиз87 ®

Стаж: 5 лет 1 месяц

Сообщений: 752

Симпатии: 143

#4#

Создавать темы 02-Фев-2016 21:15

[Профиль]  [ЛС] 

Азиз87 ®

Стаж: 5 лет 1 месяц

Сообщений: 752

Симпатии: 143

5. (Animedia) +русские субтитры [Brave & Xander].

Создавать темы 09-Фев-2016 00:51

[Профиль]  [ЛС] 

Азиз87 ®

Стаж: 5 лет 1 месяц

Сообщений: 752

Симпатии: 143

6. (Animedia) + субтитры.
Оставляю на ночь включенным ПК, т.к. отдача линии не поднимается выше 30кб/с.

Создавать темы 23-Фев-2016 18:38

[Профиль]  [ЛС] 

Азиз87 ®

Стаж: 5 лет 1 месяц

Сообщений: 752

Симпатии: 143

7. (Animedia) +русские субтитры [Brave & Xander].

Создавать темы 01-Мар-2016 18:10

[Профиль]  [ЛС] 

Азиз87 ®

Стаж: 5 лет 1 месяц

Сообщений: 752

Симпатии: 143

8. (Animedia) +русские субтитры [Brave & Xander].

Создавать темы 08-Мар-2016 11:00

[Профиль]  [ЛС] 

Азиз87 ®

Стаж: 5 лет 1 месяц

Сообщений: 752

Симпатии: 143

9-11. (Animedia) +русские субтитры [Brave & Xander].

Создавать темы 28-Мар-2016 17:57

[Профиль]  [ЛС] 

SNIL

Стаж: 5 лет 11 месяцев

Сообщений: 2624

Симпатии: 341

966438#4#
Тема)

Создавать темы 29-Мар-2016 10:12

[Профиль]  [ЛС] 

Alex_38

Стаж: 5 лет 9 месяцев

Сообщений: 336

Симпатии: 37

Азиз87, когда завершение?)

Создавать темы 15-Апр-2016 18:08

[Профиль]  [ЛС] 

Азиз87 ®

Стаж: 5 лет 1 месяц

Сообщений: 752

Симпатии: 143

972301Азиз87, когда завершение?)

Как только субтитры от якусаб студио выйдут так и обновлю.
Есть предложение оставить только от Brave & Xander субтитры?

Создавать темы 15-Апр-2016 19:49

[Профиль]  [ЛС] 

Alex_38

Стаж: 5 лет 9 месяцев

Сообщений: 336

Симпатии: 37

Азиз87, как хотите) Желающие могут скатать то, что сами захотят с внешки) Ибо сабы не настолько много весят)

Создавать темы 15-Апр-2016 20:04

[Профиль]  [ЛС] 

Азиз87 ®

Стаж: 5 лет 1 месяц

Сообщений: 752

Симпатии: 143

12 серия. Конец.

Создавать темы 21-Апр-2016 01:16

[Профиль]  [ЛС] 
Показать сообщения:    
Ответить на тему

Текущее время: 15-Дек 17:17

Часовой пояс: UTC + 5



Вы не можете начинать темы
Вы не можете отвечать на сообщения
Вы не можете редактировать свои сообщения
Вы не можете удалять свои сообщения
Вы не можете голосовать в опросах
Вы не можете прикреплять файлы к сообщениям
Вы не можете скачивать файлы