Отбросы/ Плохие / Misfits / Сезон: 3 / Серии: 1-8 из 8 (Том Харпер, Том Грин) [2011, драма, фантастика, комедия, DVDRip] (MVO : Кубик в Кубе)

Ответить на тему
 

GrayDono ®

Стаж: 1 год 8 месяцев

Сообщений: 4

Отбросы/ Плохие / Misfits
Год выпуска: 2011
Страна: Великобритания
Жанр: драма, фантастика, комедия
Продолжительность: 00:43:00
Перевод: Профессиональный многоголосый закадровый Доп. инфо о переводе Кубик в Кубе
Русские субтитры: нет
Режиссёр: Том Харпер, Том Грин
В ролях: Роберт Шиэн /Robert Sheehan/, Иван Реон /Iwan Rheon/, Лорен Соша /Lauren Socha/, Антония Томас /Antonia Thomas/, Натан Стюарт-Джарретт /Nathan Stewart-Jarrett/
Описание: Келли, Натан, Кёртис, Алиша и Саймон выполняют общественные работы за совершение мелких преступлений. Они — не друзья. Более того, у них нет ничего общего. В группе постоянно происходят конфликты, споры и драки. Но в удивительный день во время сильного шторма сильная молния делает из них супергероев и наделяет их сверхвозможностями. Они понятия не имеют, что делать с этими сверхвозможностями. Более того, никто из них не рад своей новой силе, потому что она раскрывает их самые глубокие комплексы и тайны, которые бы они не хотели выставлять напоказ. Например, Келли, озабоченная общественным мнением о себе, получает способность читать чужие мысли, а у Кёртиса появляется способность возвращать прошлое.
Качество: WEBDL-Rip
Формат: AVI
Видео кодек: XviD
Аудио кодек: MP3
Видео: 720x400 (16:9), 25.000 fps, XviD 50 ~1654 Kbps, 0.230 bit/pixel
Аудио: 44.1 kHz, MPEG Layer 3, 2 ch, ~128.00 kbps

MediaInfo

Общее
Полное имя : D:\отбросы\misfits.s03.web-dlrip.kubik.v.kube\Misfits.s03e01.rus.eng.avi
Формат : AVI
Формат/Информация : Audio Video Interleave
Размер файла : 809 Мбайт
Продолжительность : 47 м.
Общий поток : 2393 Кбит/сек
Программа кодирования : VirtualDubMod 1.5.10.2 (build 2540/release)
Библиотека кодирования : VirtualDubMod build 2540/release
Видео
Идентификатор : 0
Формат : MPEG-4 Visual
Профиль формата : Advanced [email protected]
Параметр BVOP формата : 2
Параметр QPel формата : Нет
Параметр GMC формата : Без точки перехода
Параметр матрицы формата : Default (MPEG)
Идентификатор кодека : XVID
Идентификатор кодека/Подсказка : XviD
Продолжительность : 47 м.
Битрейт : 1999 Кбит/сек
Ширина : 720 пикселей
Высота : 400 пикселей
Соотношение сторон : 16:9
Частота кадров : 25,000 кадров/сек
Цветовое пространство : YUV
Субдискретизация насыщенности : 4:2:0
Битовая глубина : 8 бит
Тип развёртки : Прогрессивная
Метод сжатия : С потерями
Бит/(Пиксели*Кадры) : 0.278
Размер потока : 676 Мбайт (84%)
Библиотека кодирования : XviD 64
Аудио #1
Идентификатор : 1
Формат : AC-3
Формат/Информация : Audio Coding 3
Расширение режима : CM (complete main)
Параметр Endianness формата : Big
Идентификатор кодека : 2000
Продолжительность : 47 м.
Вид битрейта : Постоянный
Битрейт : 192 Кбит/сек
Каналы : 2 канала
Расположение каналов : Front: L R
Частота : 48,0 КГц
Метод сжатия : С потерями
Размер потока : 64,9 Мбайт (8%)
Выравнивание : Разделение по промежуткам
Продолжительность промежутка : 40 мс. (1,00 видеокадр)
Время предзагрузки промежутка : 500 мс.
Аудио #2
Идентификатор : 2
Формат : AC-3
Формат/Информация : Audio Coding 3
Расширение режима : CM (complete main)
Параметр Endianness формата : Big
Идентификатор кодека : 2000
Продолжительность : 46 м.
Вид битрейта : Постоянный
Битрейт : 192 Кбит/сек
Каналы : 2 канала
Расположение каналов : Front: L R
Частота : 48,0 КГц
Метод сжатия : С потерями
Размер потока : 63,4 Мбайт (8%)
Выравнивание : Разделение по промежуткам
Продолжительность промежутка : 41 мс. (1,02 видеокадр)
Время предзагрузки промежутка : 500 мс.

Скриншоты





Последний раз редактировалось: GrayDono (2016-01-13 12:37), всего редактировалось 4 раз(а)

Создавать темы 11-Янв-2016 17:25

[Профиль]  [ЛС] 

lector_87

Стаж: 3 года 8 месяцев

Сообщений: 391

Симпатии: 348

вы уже научитесь правильно оформлять релизы

Создавать темы 11-Янв-2016 19:06

[Профиль]  [ЛС] 

lector_87

Стаж: 3 года 8 месяцев

Сообщений: 391

Симпатии: 348

у вас медиа инфо от 4 сезона
Качество: DVDRip web-dlrip
Видео кодек: DivXxvid
скриншоты не совпадают с данными

Создавать темы 11-Янв-2016 19:10

[Профиль]  [ЛС] 

GrayDono ®

Стаж: 1 год 8 месяцев

Сообщений: 4

965037у вас медиа инфо от 4 сезона
Качество: DVDRip web-dlrip
Видео кодек: DivXxvid
скриншоты не совпадают с данными
Тут тоже исправил_)

Создавать темы 12-Янв-2016 18:50

[Профиль]  [ЛС] 
Показать сообщения:    
Ответить на тему

Текущее время: 25-Сен 21:49

Часовой пояс: UTC + 5



Вы не можете начинать темы
Вы не можете отвечать на сообщения
Вы не можете редактировать свои сообщения
Вы не можете удалять свои сообщения
Вы не можете голосовать в опросах
Вы не можете прикреплять файлы к сообщениям
Вы не можете скачивать файлы