Дрейк и Джош / Drake & Josh / Сезон: 1-3 / Серии: 1-37+Film(Drake & Josh in Hollywood) (Стив Хофер, Вирджил Л. Фабиан, Адам Вайсман) [2004, Семейная комедия, SatRip]

Ответить на тему
 

GrayDono ®

Стаж: 1 год 8 месяцев

Сообщений: 4

Дрейк и Джош / Drake & Josh
Год выпуска: 2004-2006
Страна: США
Жанр: Семейная комедия
Продолжительность: 00:23:00
Перевод: Полное дублирование
Режиссёр: Стив Хофер, Вирджил Л. Фабиан, Адам Вайсман
В ролях: Дрэйк Белл, Джош Пек, Миранда Косгров, Джонатан Голдштейн, Нэнси Салливан и др.
Описание: Дрэйк и Джош - весёлая комедия о двух подростках, ставших сводными братьями. Дрэйк - азартный подросток, мечтающий стать известным музыкантом, которому всё сходит с рук. Обладает неким пофигизмом.
Джош - весёлый, честный тинэйджер, который против обмана, не умеет врать, да и любые, даже самые мелкие проступки его не остаются безнаказанными. Очень эмоционален, в душе ещё совсем ребёнок.
Приятно наблюдать за тем, как эти два совершенно противоположных персонажа уживаются вместе. Игра вполне реалистична, сценарий хорош. Чем-то напоминает Кенана и Кела, но много чего своего собственого.
Есть ещё один персонаж - Меган. Младшая сестрёнка, у некоторых вызывающая раздражение и призрение, а у других - любовь и симпатию. Меган - 9-летняя девочка, всегда пытающаяся досадить обоим из братьев. В большинстве случаев она является причиной их наказания.
Качество: Satrip
Формат: Avi
Видео кодек: Xvid
Аудио кодек: MP3
Видео: 640x480 (1.33:1), 25 fps, XviD MPEG-4 ~1359 kbps avg, 0.18 bit/pixel
Аудио: 48 kHz, MPEG Layer 3, 1 ch, ~128.00 kbps avg

MediaInfo

AVI
Формат/Информация : Audio Video Interleave
Размер файла : 261 Мбайт
Продолжительность : 24 м.
Общий поток : 1498 Кбит/сек
Программа кодирования : VirtualDubMod 1.5.10.2 (build 2540/release)
Библиотека кодирования : VirtualDubMod build 2540/release
Видео
Идентификатор : 0
Формат : MPEG-4 Visual
Профиль формата : Advanced [email protected]
Параметр BVOP формата : 2
Параметр QPel формата : Нет
Параметр GMC формата : Без точки перехода
Параметр матрицы формата : Default (H.263)
Режим смешивания : Сжатый битовый поток
Идентификатор кодека : XVID
Идентификатор кодека/Подсказка : XviD
Продолжительность : 24 м.
Битрейт : 1361 Кбит/сек
Ширина : 640 пикселей
Высота : 480 пикселей
Соотношение сторон : 4:3
Соотношение сторон в оригинале : 4:3
Частота кадров : 25,000 кадров/сек
Цветовое пространство : YUV
Субдискретизация насыщенности : 4:2:0
Битовая глубина : 8 бит
Тип развёртки : Прогрессивная
Метод сжатия : С потерями
Бит/(Пиксели*Кадры) : 0.177
Размер потока : 237 Мбайт (91%)
Библиотека кодирования : XviD 1.1.2 (UTC 2006-11-01)
Аудио
Идентификатор : 1
Формат : MPEG Audio
Версия формата : Version 1
Профиль формата : Layer 3
Идентификатор кодека : 55
Идентификатор кодека/Подсказка : MP3
Продолжительность : 24 м.
Вид битрейта : Постоянный
Битрейт : 128 Кбит/сек
Каналы : 1 канал
Частота : 48,0 КГц
Метод сжатия : С потерями
Размер потока : 22,3 Мбайт (9%)
Выравнивание : Разделение по промежуткам
Продолжительность промежутка : 40 мс. (1,00 видеокадр)
Время предзагрузки промежутка : 500 мс.

Скриншоты





Последний раз редактировалось: GrayDono (2016-01-12 00:25), всего редактировалось 1 раз

Создавать темы 11-Янв-2016 17:51

[Профиль]  [ЛС] 

lector_87

Стаж: 3 года 7 месяцев

Сообщений: 391

Симпатии: 348

1.шапка
Дрейк и Джош / Drake & Josh / Сезон: 37 / Серии: 1 из 36 (Стив Хофер, Вирджил Л. Фабиан, Адам Вайсман) [2004, Семейная комедия, DVDRip] (DUB)
определитесь там какой сезон и сколько серий не совпадает с вашими данными
Качество: DVDRip--- Satrip
Формат: MP4 ----- Avi
Видео кодек: DivX---- Xvid
и постер поставте нормальный 400х500

Создавать темы 11-Янв-2016 19:27

[Профиль]  [ЛС] 

GrayDono ®

Стаж: 1 год 8 месяцев

Сообщений: 4

9650421.шапка
Дрейк и Джош / Drake & Josh / Сезон: 37 / Серии: 1 из 36 (Стив Хофер, Вирджил Л. Фабиан, Адам Вайсман) [2004, Семейная комедия, DVDRip] (DUB)
определитесь там какой сезон и сколько серий не совпадает с вашими данными
Качество: DVDRip--- Satrip
Формат: MP4 ----- Avi
Видео кодек: DivX---- Xvid
и постер поставте нормальный 400х500
Я исправил вроде_)

Создавать темы 12-Янв-2016 18:49

[Профиль]  [ЛС] 
Показать сообщения:    
Ответить на тему

Текущее время: 21-Сен 04:39

Часовой пояс: UTC + 5



Вы не можете начинать темы
Вы не можете отвечать на сообщения
Вы не можете редактировать свои сообщения
Вы не можете удалять свои сообщения
Вы не можете голосовать в опросах
Вы не можете прикреплять файлы к сообщениям
Вы не можете скачивать файлы