Комната / Room (Леонард Абрахамсон / Lenny Abrahamson) [2015, Ирландия, Канада, Драма, DVDScreener] (MVO : Паровоз Продакшн)

Ответить на тему
 

Saha ®

Стаж: 5 лет

Сообщений: 21

Симпатии: 12

Комната / Room
Страна: Ирландия, Канада
Жанр: Драма
Год выпуска: 2015
Продолжительность: 01:57:33
Перевод: Любительский (многоголосый закадровый) Доп. инфо о переводе Паровоз Продакшн
Cубтитры: нет
Режиссер: Леонард Абрахамсон / Lenny Abrahamson
В ролях: Бри Ларсон, Джейкоб Тремблэ, Шон Бриджерс, Венди Крюсон, Сэнди МакМастер, Мэтт Гордон, Аманда Бругел, Джо Пинг, Джоан Аллен, Заррин Дарнелл-Мартин
Описание: Девушку по имени Ма похитили, когда она была еще подростком. С тех пор бедняга живет в крохотной комнатке вместе со своим 5-летним сыном Джеком. Мальчик при этом ничего кроме этой комнаты не видел, он в ней родился и ни разу ее не покидал.
Доп. информация: Номинации на Оскар-2016:
Лучшая женская роль, Лучший адаптированный сценарий, Лучший фильм, Лучший режиссер
Качество видео: DVDScreener
Формат видео: AVI
Видео: 640x272 (2.35:1), 25 fps, XviD build 73 ~748 kbps avg, 0.17 bit/pixel
Аудио: 48 kHz, MPEG Layer 3, 2 ch, ~128.00 kbps avg

MediaInfo

General
Complete name : C:\Users\Comp\Downloads\Komnata.2015.DVDScr.740.[Один 777].avi
Format : AVI
Format/Info : Audio Video Interleave
File size : 745 MiB
Duration : 1h 57mn
Overall bit rate : 886 Kbps
Writing application : VirtualDubMod 1.5.10.3 (build 2550/release)
Writing library : VirtualDubMod build 2550/release
Video
ID : 0
Format : MPEG-4 Visual
Format profile : Advanced [email protected]
Format settings, BVOP : 1
Format settings, QPel : No
Format settings, GMC : No warppoints
Format settings, Matrix : Default (H.263)
Codec ID : XVID
Codec ID/Hint : XviD
Duration : 1h 57mn
Bit rate : 748 Kbps
Width : 640 pixels
Height : 272 pixels
Display aspect ratio : 2.35:1
Frame rate : 25.000 fps
Color space : YUV
Chroma subsampling : 4:2:0
Bit depth : 8 bits
Scan type : Progressive
Compression mode : Lossy
Bits/(Pixel*Frame) : 0.172
Stream size : 629 MiB (84%)
Writing library : XviD 73
Audio
ID : 1
Format : MPEG Audio
Format version : Version 1
Format profile : Layer 3
Codec ID : 55
Codec ID/Hint : MP3
Duration : 1h 57mn
Bit rate mode : Constant
Bit rate : 128 Kbps
Channel(s) : 2 channels
Sampling rate : 48.0 KHz
Compression mode : Lossy
Stream size : 108 MiB (14%)
Alignment : Aligned on interleaves
Interleave, duration : 40 ms (1.00 video frame)
Interleave, preload duratio : 504 ms
Writing library : LAME3.99r
Encoding settings : -m s -V 4 -q 2 -lowpass 17 -b 128

Скриншот c названием фильма

Скриншоты



Создавать темы 17-Янв-2016 12:04

[Профиль]  [ЛС] 
Показать сообщения:    
Ответить на тему

Текущее время: 19-Авг 10:41

Часовой пояс: UTC + 5



Вы не можете начинать темы
Вы не можете отвечать на сообщения
Вы не можете редактировать свои сообщения
Вы не можете удалять свои сообщения
Вы не можете голосовать в опросах
Вы не можете прикреплять файлы к сообщениям
Вы не можете скачивать файлы