Врата: Там бьются наши воины ТВ-2 / Gate: Jieitai Kanochi nite, Kaku Tatakaeri TV-2 [12 из 12] [TV] [Без хардсаба] [RUS] [2016г, приключения, фэнтези]

Страницы :  1, 2  След.

Ответить на тему
 

maksimus_1712 ®

Стаж: 4 года 2 месяца

Сообщений: 122

Симпатии: 68

Врата: Там бьются наши воины ТВ-2
Gate: Jieitai Kanochi nite, Kaku Tatakaeri TV-2
- Год: 2016
Жанр: приключения, фэнтези
Страна: Япония
Количество серий: 12
Продолжительность: 25 мин.
Дата выпуска: c 09.01.2016
Режиссер: Кёгоку Такахико
Автор оригинала / Сценарист: Янай Такуми
Озвучивание: JAM, 9ый неизвестный, Oriko, Гамлетка Цезаревна, Cuba77
Перевод: Zool, Seiya Loveless
Тайминг и работа со звуком: NeSqUiK
Студия: A-1 Pictures
Описание: В один погожий день в Японии вдруг открылись Врата, откуда повалилось полчище несметное и агрессивно настроенное. Орды рас разных доселе людям известных лишь из книг да игр с киношками - драконы, эльфы, гоблины, орки и человеки с шашками наголо.
Герою этой эпичной истории, Ёджи, предстоит стать героем - миротворцем, который должен наладить контакт миров и разрулить непонятки разные.
World Art-Качество: HDTVRip
Формат видео: MP4
Видео: x264,1280x720,1934kbps,23.976fps
Аудио: ААС, 48000Hz, ~192kbps, 2ch- -

MediaInfo

General
Complete name                  : [AniDub]_Gate_Jieitai_Kanochi_nite_Kaku_Tatakaeri_TV-2_[720p]\[AniDub]_Gate_Jieitai_Kanochi_nite_Kaku_Tatakaeri_TV-2_[01]_[720p].mp4
Format                         : MPEG-4
Format profile                 : Base Media
Codec ID                       : isom
File size                      : 366 MiB
Duration                       : 23mn 59s
Overall bit rate mode          : Variable
Overall bit rate               : 2 131 Kbps
Encoded date                   : UTC 2016-01-10 23:37:10
Tagged date                    : UTC 2016-01-10 23:37:10
Writing application            : Yamb 2.1.0.0 [http://yamb.unite-video.com]
Video
ID                             : 1
Format                         : AVC
Format/Info                    : Advanced Video Codec
Format profile                 : [email protected]
Format settings, CABAC         : Yes
Format settings, ReFrames      : 4 frames
Codec ID                       : avc1
Codec ID/Info                  : Advanced Video Coding
Duration                       : 23mn 59s
Bit rate                       : 1 935 Kbps
Maximum bit rate               : 12.1 Mbps
Width                          : 1 280 pixels
Height                         : 720 pixels
Display aspect ratio           : 16:9
Frame rate mode                : Constant
Frame rate                     : 23.976 fps
Color space                    : YUV
Chroma subsampling             : 4:2:0
Bit depth                      : 8 bits
Scan type                      : Progressive
Bits/(Pixel*Frame)             : 0.088
Stream size                    : 332 MiB (91%)
Title                          : 264
Writing library                : x264 core 129 r2245+729M 1a52e03
Encoding settings              : cabac=1 / ref=4 / deblock=1:1:-1 / analyse=0x3:0x113 / me=umh / subme=9 / psy=1 / fade_compensate=0.00 / psy_rd=1.00:0.00 / mixed_ref=1 / me_range=24 / chroma_me=1 / trellis=2 / 8x8dct=1 / cqm=0 / deadzone=21,11 / fast_pskip=1 / chroma_qp_offset=-2 / threads=8 / lookahead_threads=1 / sliced_threads=0 / nr=0 / decimate=1 / interlaced=0 / bluray_compat=0 / constrained_intra=0 / fgo=0 / bframes=9 / b_pyramid=2 / b_adapt=2 / b_bias=0 / direct=1 / weightb=1 / open_gop=0 / weightp=2 / keyint=240 / keyint_min=24 / scenecut=40 / intra_refresh=0 / rc=crf / mbtree=0 / crf=18.5 / qcomp=0.72 / qpmin=0 / qpmax=69 / qpstep=4 / ip_ratio=1.40 / pb_ratio=1.30 / aq=1:0.85
Encoded date                   : UTC 2016-01-10 05:43:28
Tagged date                    : UTC 2016-01-10 23:37:12
Color primaries                : BT.709
Transfer characteristics       : BT.709
Matrix coefficients            : BT.709
Audio
ID                             : 2
Format                         : AAC
Format/Info                    : Advanced Audio Codec
Format profile                 : LC
Codec ID                       : 40
Duration                       : 23mn 59s
Bit rate mode                  : Variable
Bit rate                       : 192 Kbps
Maximum bit rate               : 196 Kbps
Channel(s)                     : 2 channels
Channel positions              : Front: L R
Sampling rate                  : 48.0 KHz
Compression mode               : Lossy
Stream size                    : 33.0 MiB (9%)
Language                       : English
Encoded date                   : UTC 2016-01-10 23:37:12
Tagged date                    : UTC 2016-01-10 23:37:12


Последний раз редактировалось: maksimus_1712 (2016-04-01 00:53), всего редактировалось 13 раз(а)

Создавать темы 18-Янв-2016 22:51

[Профиль]  [ЛС] 

krocki

Стаж: 2 года 6 месяцев

Сообщений: 57

Симпатии: 1

Хорошее аниме...ждём новых серий!

Создавать темы 19-Янв-2016 00:36

[Профиль]  [ЛС] 

maksimus_1712 ®

Стаж: 4 года 2 месяца

Сообщений: 122

Симпатии: 68

2-Серия

Создавать темы 19-Янв-2016 19:16

[Профиль]  [ЛС] 

Азиз87

Стаж: 4 года 11 месяцев

Сообщений: 752

Симпатии: 143

Выкладывание новинок повышается, что само по себе радость.

Создавать темы 19-Янв-2016 22:55

[Профиль]  [ЛС] 

kartwright

Стаж: 2 года 7 месяцев

Сообщений: 35

Симпатии: 9

Оперативно)) спасибо)

Создавать темы 19-Янв-2016 23:06

[Профиль]  [ЛС] 

maksimus_1712 ®

Стаж: 4 года 2 месяца

Сообщений: 122

Симпатии: 68

-3-Серия-

Создавать темы 27-Янв-2016 18:07

[Профиль]  [ЛС] 

maksimus_1712 ®

Стаж: 4 года 2 месяца

Сообщений: 122

Симпатии: 68

-4-Серия-

Создавать темы 03-Фев-2016 10:17

[Профиль]  [ЛС] 

maksimus_1712 ®

Стаж: 4 года 2 месяца

Сообщений: 122

Симпатии: 68

-5-Серия-

Создавать темы 09-Фев-2016 07:47

[Профиль]  [ЛС] 

maksimus_1712 ®

Стаж: 4 года 2 месяца

Сообщений: 122

Симпатии: 68

-6-Серия-

Создавать темы 18-Фев-2016 22:47

[Профиль]  [ЛС] 

maksimus_1712 ®

Стаж: 4 года 2 месяца

Сообщений: 122

Симпатии: 68

-7-Серия-

Создавать темы 27-Фев-2016 22:24

[Профиль]  [ЛС] 

SNIL

Стаж: 5 лет 9 месяцев

Сообщений: 2624

Симпатии: 341

Жду не дождусь фулл релиза
Терпение, только терпение)

Создавать темы 28-Фев-2016 00:13

[Профиль]  [ЛС] 

daniellya

Стаж: 5 лет 6 месяцев

Сообщений: 338

Симпатии: 29

968595Жду не дождусь фулл релиза
Терпение, только терпение)
Зачем тебе эта цензура от А1, которая спустила рейтинг с 18+ до 13+? au

Создавать темы 28-Фев-2016 03:32

[Профиль]  [ЛС] 

SNIL

Стаж: 5 лет 9 месяцев

Сообщений: 2624

Симпатии: 341

daniellya, Да, зацепил первый сез

Создавать темы 28-Фев-2016 10:25

[Профиль]  [ЛС] 

maksimus_1712 ®

Стаж: 4 года 2 месяца

Сообщений: 122

Симпатии: 68

-8-Серия-

Создавать темы 01-Мар-2016 12:50

[Профиль]  [ЛС] 

SayrusDM

Стаж: 5 лет 6 месяцев

Сообщений: 35

спс за релиз сын подсадил на этот аниме сериал хотя я не любитель аниме АВТОРЫ огромное СПАСИБО и + от меня и сына

Создавать темы 07-Мар-2016 23:27

[Профиль]  [ЛС] 
Показать сообщения:    
Ответить на тему

Текущее время: 24-Окт 09:10

Часовой пояс: UTC + 5



Вы не можете начинать темы
Вы не можете отвечать на сообщения
Вы не можете редактировать свои сообщения
Вы не можете удалять свои сообщения
Вы не можете голосовать в опросах
Вы не можете прикреплять файлы к сообщениям
Вы не можете скачивать файлы