Король Артур / King Arthur (Антуан Фукуа / Antoine Fuqua) [2004, США, Великобритания, Ирландия, боевик, драма, приключения, история, DVDRip] (MVO)

Ответить на тему
 

фара ®

Стаж: 6 лет 6 месяцев

Сообщений: 2

Король Артур / King Arthur
Страна: США, Великобритания, Ирландия
Жанр: боевик, драма, приключения, история
Год выпуска: 2004
Продолжительность: 02:00:25
Перевод: Профессиональный (многоголосый закадровый)
Cубтитры: нет
Режиссер: Антуан Фукуа / Antoine Fuqua
В ролях: В ролях: Клайв Оуэн (Arthur), Кира Найтли (Guinevere), Мадс Миккельсен (Tristan), Рэй Уинстон (Bors), Стеллан Скарсгард (Cerdic), Тиль Швайгер (Cynric), Йоан Гриффит (Lancelot), Джоэл Эдгертон (Gawain), Хью Дэнси (Galahad), Рэй Стивенсон (Dagonet), Стивен Диллэйн (Merlin)
Описание: Стеллан Скарсгард ("Рассекая волны") и Кейра Найтли ("Пираты Карибского моря", "Реальная любовь") в историческом блокбастере от режиссера "Тренировочного дня" Антуана Фукуа и суперпродюсера Джерри Брукхаймера.
Британия, V век. Шатающаяся под натиском варваров Римская империя доживает последние годы. Кажется, никто и ничто не в состоянии уберечь Туманный Альбион от накатывающих из-за моря орд кровожадных саксов. Но есть великий воин, сын римлянина и британки, которому суждено доказать обратное и золотом вписать свое имя - и имена своих преданных рыцарей - на скрижали истории. Его зовут Артур (Клайв Оуэн). Человек, который станет легендой. Человек, который станет символом доблести. Человек, который станет королем!
Качество видео: DVDRip
Формат видео: AVI
Видео: 704x528 (1.33:1), 25 fps, XviD build 73 ~1539 kbps avg, 0.17 bit/pixel
Аудио: 48 kHz, AC3 Dolby Digital, 2/0 (L,R) ch, ~192 kbps

MediaInfo

Король Артур - King Arthur (by alenavova).avi
Format : AVI
Format/Info : Audio Video Interleave
File size : 1.46 GiB
Duration : 2h 0mn
Overall bit rate : 1 741 Kbps
Movie name : Король Артур (Видеосервис)
Director : by alenavova
Writing application : VirtualDubMod 1.5.10.3 | www.virtualdub-fr.org || (build 2550/release)
Copyright : Edich2
Comment : RuTracker.org
Video
ID : 0
Format : MPEG-4 Visual
Format profile : Advanced [email protected]
Format settings, BVOP : 1
Format settings, QPel : No
Format settings, GMC : No warppoints
Format settings, Matrix : Default (MPEG)
Codec ID : XVID
Codec ID/Hint : XviD
Duration : 2h 0mn
Bit rate : 1 539 Kbps
Width : 704 pixels
Height : 528 pixels
Display aspect ratio : 4:3
Frame rate : 25.000 fps
Color space : YUV
Chroma subsampling : 4:2:0
Bit depth : 8 bits
Scan type : Progressive
Compression mode : Lossy
Bits/(Pixel*Frame) : 0.166
Stream size : 1.29 GiB (88%)
Writing library : XviD 73
Audio
ID : 1
Format : AC-3
Format/Info : Audio Coding 3
Mode extension : CM (complete main)
Format settings, Endianness : Big
Codec ID : 2000
Duration : 2h 0mn
Bit rate mode : Constant
Bit rate : 192 Kbps
Channel(s) : 2 channels
Channel positions : Front: L R
Sampling rate : 48.0 KHz
Bit depth : 16 bits
Compression mode : Lossy
Stream size : 165 MiB (11%)
Alignment : Split accross interleaves
Interleave, duration : 40 ms (1.00 video frame)
Interleave, preload duration : 500 ms

Скриншоты



Создавать темы 19-Янв-2016 10:51

[Профиль]  [ЛС] 

kat222000

Стаж: 6 лет 6 месяцев

Сообщений: 608

Симпатии: 1055

фара, Скриншоты не соответствуют заявленным требованиям.

Создавать темы 19-Янв-2016 20:51

[Профиль]  [ЛС] 
Показать сообщения:    
Ответить на тему

Текущее время: 20-Окт 03:04

Часовой пояс: UTC + 5



Вы не можете начинать темы
Вы не можете отвечать на сообщения
Вы не можете редактировать свои сообщения
Вы не можете удалять свои сообщения
Вы не можете голосовать в опросах
Вы не можете прикреплять файлы к сообщениям
Вы не можете скачивать файлы