007: СПЕКТР / Spectre (Сэм Мендес \ Sam Mendes) [2015, Великобритания, США, боевик, триллер, приключения, HDRip-AVC] (DUB) (Sub Eng + Original Eng)

Ответить на тему
 

rusi5566 ®

Стаж: 7 лет 1 месяц

Сообщений: 8

Симпатии: 8

-007: СПЕКТР / Spectre-Страна: Великобритания, США
Жанр: боевик, триллер, приключения
Год выпуска: 2015
Продолжительность: 02:28:07-Перевод: Дублированный (Чистый звук)
Cубтитры: английские
Оригинальная аудиодорожка: английский-Режиссер: Сэм Мендес \ Sam Mendes-В ролях: Дэниэл Крэйг, Кристоф Вальц, Леа Сейду, Рэйф Файнс, Моника Беллуччи, Бен Уишоу, Наоми Харрис, Дэйв Батиста, Эндрю Скотт, Рори Киннер-Описание: После драматических событий, произошедших в родовом поместье семьи Бонда, Скайфолле, агент 007 опять оказывается втянутым в опасное дело. Он получает загадочное послание, явно связанное с каким-то секретом из прошлого Бонда. Пытаясь разобраться с этой тайной, он делает шокирующее открытие – международная преступная организация «СПЕКТР», с которой Джеймс Бонд боролся много лет назад, снова дала о себе знать.
Пока агент 007 упорно идет по следу преступной организации, М, глава английской разведывательной службы, отстаивает интересы МИ-6 в высших политических кругах. У правительства есть свои планы на секретную службу, и М опасается за будущее своей организации. Джеймс Бонд, изучая новые подробности порученного ему задания, начинает понимать, что многие годы его окружала стена лжи, молчания и недомолвок. Теперь его главная задача – узнать, какие тайны скрывает «СПЕКТР», чтобы обезопасить все то, что ему дорого в жизни.-Качество видео: HDRip
Формат видео: AVC-Видео: MPEG4-AVC, 1900 Кбит/с, 1024x428
Аудио 1: Русский (AC3, 2 ch, 128 Кбит/с)
Аудио 2: Aнглийский (AC3, 6 ch, 384 Кбит/с)
Доп. информация о субтитрах: vobsub-

MediaInfo

Format : Matroska
Format version : Version 4 / Version 2
File size : 2.49 GiB
Duration : 2h 28mn
Overall bit rate : 2 407 Kbps
Encoded date : UTC 2016-01-17 10:50:12
Writing application : mkvmerge v8.3.0 ('Over the Horizon') 64bit
Writing library : Lavf56.22.100
DURATION : 02:18:07.872000000
NUMBER_OF_FRAMES : 258996
NUMBER_OF_BYTES : 132605952
_STATISTICS_WRITING_APP : mkvmerge v8.3.0 ('Over the Horizon') 64bit
_STATISTICS_WRITING_DATE_UTC : 2016-01-18 13:52:26
_STATISTICS_TAGS : BPS DURATION NUMBER_OF_FRAMES NUMBER_OF_BYTES
Video
ID : 1
Format : AVC
Format/Info : Advanced Video Codec
Format profile : [email protected]
Format settings, CABAC : Yes
Format settings, ReFrames : 11 frames
Codec ID : V_MPEG4/ISO/AVC
Duration : 2h 28mn
Bit rate : 1 900 Kbps
Width : 1 024 pixels
Height : 428 pixels
Display aspect ratio : 2.40:1
Frame rate mode : Constant
Frame rate : 23.976 fps
Standard : Component
Color space : YUV
Chroma subsampling : 4:2:0
Bit depth : 8 bits
Scan type : Progressive
Bits/(Pixel*Frame) : 0.181
Stream size : 1.91 GiB (77%)
Writing library : x264 core 144 r2525
Encoding settings : cabac=1 / ref=11 / deblock=1:-2:-2 / analyse=0x3:0x112 / me=umh / subme=9 / psy=1 / psy_rd=1.00:1.00 / mixed_ref=0 / me_range=16 / chroma_me=1 / trellis=1 / 8x8dct=1 / cqm=0 / deadzone=21,11 / fast_pskip=1 / chroma_qp_offset=-4 / threads=6 / lookahead_threads=1 / sliced_threads=0 / nr=0 / decimate=1 / interlaced=0 / bluray_compat=0 / constrained_intra=0 / bframes=11 / b_pyramid=2 / b_adapt=2 / b_bias=6 / direct=3 / weightb=0 / open_gop=0 / weightp=1 / keyint=239 / keyint_min=23 / scenecut=49 / intra_refresh=0 / rc_lookahead=40 / rc=2pass / mbtree=1 / bitrate=1900 / ratetol=1.0 / qcomp=0.80 / qpmin=4 / qpmax=69 / qpstep=11 / cplxblur=20.0 / qblur=0.5 / ip_ratio=1.00 / aq=3:1.00
Default : Yes
Forced : No
Color range : Limited
DURATION : 02:28:06.851000000
NUMBER_OF_FRAMES : 213071
NUMBER_OF_BYTES : 2108598752
_STATISTICS_WRITING_APP : mkvmerge v8.3.0 ('Over the Horizon') 64bit
_STATISTICS_WRITING_DATE_UTC : 2016-01-18 13:52:26
_STATISTICS_TAGS : BPS DURATION NUMBER_OF_FRAMES NUMBER_OF_BYTES
Audio #1
ID : 2
Format : AC-3
Format/Info : Audio Coding 3
Mode extension : CM (complete main)
Format settings, Endianness : Big
Codec ID : A_AC3
Duration : 2h 28mn
Bit rate mode : Constant
Bit rate : 384 Kbps
Channel(s) : 6 channels
Channel positions : Front: L C R, Side: L R, LFE
Sampling rate : 48.0 KHz
Compression mode : Lossy
Delay relative to video : -83ms
Stream size : 407 MiB (16%)
Language : English
Default : No
Forced : No
Audio #2
ID : 6
Format : AC-3
Format/Info : Audio Coding 3
Mode extension : CM (complete main)
Format settings, Endianness : Big
Codec ID : A_AC3
Duration : 2h 28mn
Bit rate mode : Constant
Bit rate : 128 Kbps
Channel(s) : 2 channels
Channel positions : Front: L R
Sampling rate : 48.0 KHz
Compression mode : Lossy
Delay relative to video : -77ms
Stream size : 136 MiB (5%)
Language : Russian
Default : Yes
Forced : No
Text #1
ID : 3
Format : VobSub
Muxing mode : zlib
Codec ID : S_VOBSUB
Codec ID/Info : Picture based subtitle format used on DVDs
Language : English
Default : No
Forced : No
Text #2
ID : 4
Format : VobSub
Muxing mode : zlib
Codec ID : S_VOBSUB
Codec ID/Info : Picture based subtitle format used on DVDs
Language : English
Default : No
Forced : No
Text #3
ID : 5
Format : UTF-8
Codec ID : S_TEXT/UTF8
Codec ID/Info : UTF-8 Plain Text
Title : English-Forced
Language : English
Default : No
Forced : No
-

Скриншоты





Последний раз редактировалось: rusi5566 (2016-01-24 22:58), всего редактировалось 1 раз

Создавать темы 20-Янв-2016 04:23

[Профиль]  [ЛС] 

Топик был перенесен из форума Фильмы за 2015 в форум HD-AVC
kat222000

Комментарий от kat222000


Ваш релиз Исправлен..

Создавать темы 24-Янв-2016 22:58

 
Показать сообщения:    
Ответить на тему

Текущее время: 22-Ноя 21:52

Часовой пояс: UTC + 5



Вы не можете начинать темы
Вы не можете отвечать на сообщения
Вы не можете редактировать свои сообщения
Вы не можете удалять свои сообщения
Вы не можете голосовать в опросах
Вы не можете прикреплять файлы к сообщениям
Вы не можете скачивать файлы