Богиня благословляет этот прекрасный мир / Kono Subarashii Sekai ni Shukufuku wo! [10 из 10] (Канасаки Такаоми) [TV] [RUS] [2016, HDTVRip, комедия, фэнтези, этти, романтика] [720p] [AniDub]

Ответить на тему
 

maksimus_1712 ®

Стаж: 4 года 3 месяца

Сообщений: 122

Симпатии: 68

-Богиня благословляет этот прекрасный мир / Kono Subarashii Sekai ni Shukufuku wo!- Год: 2016
Жанр: комедия, фэнтези, этти, романтика
Страна: Япония
Количество серий: 11
Продолжительность: 25 мин.
Дата выпуска: c 14.01.2016
Режиссер: Канасаки Такаоми
Автор оригинала / Сценарист: Акацуки Нацумэ
Озвучивание: Ancord, Trina_D
Перевод: FooBoo
Тайминг и работа со звуком: Fraksinus
Студия: Studio Deen
Описание: Сато Казума - ОЯХ (обычный японский хикикомори). Постоянно сидит дома и только шпилит в свои любимые ММОРПГ. Но, однажды, решив таки выйти наружу за новой версией игры попадает в ДТП и...погибает. Но закончится ли на этом его история? Или-же некто с другой стороны предложит ему иной путь?-Качество: HDTVRip
Формат видео: MP4
Видео: x264, 1280x720, 23.976fps, 2379kbps
Аудио: ААС, 48000Hz, ~192kbps, 2ch- -

MediaInfo

General
Complete name                  : [AniDub]_Kono_Subarashii_Sekai_ni_Shukufuku_wo!_TV_[01]_[720p_x264_Aac]_[Ancord_Trina_D].mp4
Format                         : MPEG-4
Format profile                 : Base Media
Codec ID                       : isom
File size                      : 447 MiB
Duration                       : 24mn 14s
Overall bit rate mode          : Variable
Overall bit rate               : 2 575 Kbps
Encoded date                   : UTC 2016-01-13 18:58:36
Tagged date                    : UTC 2016-01-13 18:58:36
Video
ID                             : 1
Format                         : AVC
Format/Info                    : Advanced Video Codec
Format profile                 : [email protected]
Format settings, CABAC         : Yes
Format settings, ReFrames      : 3 frames
Codec ID                       : avc1
Codec ID/Info                  : Advanced Video Coding
Duration                       : 24mn 14s
Bit rate mode                  : Variable
Bit rate                       : 2 379 Kbps
Maximum bit rate               : 11.4 Mbps
Width                          : 1 280 pixels
Height                         : 720 pixels
Display aspect ratio           : 16:9
Frame rate mode                : Variable
Frame rate                     : 23.976 fps
Minimum frame rate             : 23.976 fps
Maximum frame rate             : 23.988 fps
Standard                       : NTSC
Color space                    : YUV
Chroma subsampling             : 4:2:0
Bit depth                      : 8 bits
Scan type                      : Progressive
Bits/(Pixel*Frame)             : 0.108
Stream size                    : 413 MiB (92%)
Language                       : English
Encoded date                   : UTC 2016-01-13 17:24:21
Tagged date                    : UTC 2016-01-13 18:58:37
Audio
ID                             : 2
Format                         : AAC
Format/Info                    : Advanced Audio Codec
Format profile                 : LC
Codec ID                       : 40
Duration                       : 24mn 14s
Bit rate mode                  : Variable
Bit rate                       : 192 Kbps
Maximum bit rate               : 196 Kbps
Channel(s)                     : 2 channels
Channel positions              : Front: L R
Sampling rate                  : 48.0 KHz
Compression mode               : Lossy
Stream size                    : 33.3 MiB (7%)
Language                       : English
Encoded date                   : UTC 2016-01-13 18:58:37
Tagged date                    : UTC 2016-01-13 18:58:37
-


Последний раз редактировалось: maksimus_1712 (2016-04-01 00:53), всего редактировалось 9 раз(а)

Создавать темы 24-Янв-2016 11:10

[Профиль]  [ЛС] 

maksimus_1712 ®

Стаж: 4 года 3 месяца

Сообщений: 122

Симпатии: 68

-3-Серия-

Создавать темы 31-Янв-2016 10:32

[Профиль]  [ЛС] 

maksimus_1712 ®

Стаж: 4 года 3 месяца

Сообщений: 122

Симпатии: 68

-4-Серия-

Создавать темы 05-Фев-2016 17:38

[Профиль]  [ЛС] 

Азиз87

Стаж: 5 лет

Сообщений: 752

Симпатии: 143

Да, будь я на месте ГГ - валил бы из такой пати фриков, одна конченая мазо, у другой же чувство собственного эго магической силы(Мегуми) выше крыши.
Тараканов у героев все больше и больше.

Создавать темы 06-Фев-2016 10:02

[Профиль]  [ЛС] 

maksimus_1712 ®

Стаж: 4 года 3 месяца

Сообщений: 122

Симпатии: 68

-5-Серия-

Создавать темы 12-Фев-2016 20:57

[Профиль]  [ЛС] 

maksimus_1712 ®

Стаж: 4 года 3 месяца

Сообщений: 122

Симпатии: 68

-6-Серия-

Создавать темы 19-Фев-2016 17:21

[Профиль]  [ЛС] 

maksimus_1712 ®

Стаж: 4 года 3 месяца

Сообщений: 122

Симпатии: 68

-7-Серия-

Создавать темы 28-Фев-2016 22:57

[Профиль]  [ЛС] 

maksimus_1712 ®

Стаж: 4 года 3 месяца

Сообщений: 122

Симпатии: 68

-8-Серия-

Создавать темы 07-Мар-2016 07:13

[Профиль]  [ЛС] 

maksimus_1712 ®

Стаж: 4 года 3 месяца

Сообщений: 122

Симпатии: 68

-9-Серия-

Создавать темы 12-Мар-2016 12:20

[Профиль]  [ЛС] 

maksimus_1712 ®

Стаж: 4 года 3 месяца

Сообщений: 122

Симпатии: 68

-10-Серия-

Создавать темы 24-Мар-2016 11:43

[Профиль]  [ЛС] 
Показать сообщения:    
Ответить на тему

Текущее время: 23-Ноя 18:11

Часовой пояс: UTC + 5



Вы не можете начинать темы
Вы не можете отвечать на сообщения
Вы не можете редактировать свои сообщения
Вы не можете удалять свои сообщения
Вы не можете голосовать в опросах
Вы не можете прикреплять файлы к сообщениям
Вы не можете скачивать файлы