Фэнтези Стар Онлайн 2 / Phantasy Star Online 2 (Кавагути Кэйитиро) [TV] [12 из 12] [RUS (int)] [2016, приключения, фантастика, HDTVRip] [720p]

Ответить на тему
 

Choris ®

Стаж: 2 года 7 месяцев

Сообщений: 61

Симпатии: 54

--
Год выпуска: 2016
Страна: Япония
Жанр: приключения, фантастика
Продолжительность: 12 эп. по 25 мин.
Тип: TV--Режиссер: Кавагути Кэйитиро
Автор оригинала: Хирота Мицутака
Студия: --Описание:
Экранизация одноимённой игры. В игровом мире существует несколько рас и представители каждой из них сражаются друг с другом. Облачённые в высокотехнологичные боевые костюмы и наделённые особой энергией "фотонами" они командами способны выносить толпы монстров, апгрейдить навыки и вместе достигать своих целей. Благодаря такому весьма привлекательному времяпрепровождению за игрой долгое время проводят представители обоих полов.
История разворачивается на Земле со старшеклассником Ицкой Тачибаной и его школьных товарищей. Объединив свои силы они погрузились в мир "Фэнтези Стар Онлайн". Каждый из них несёт в игру свои мечты, достоинства и изъяны, но командой их делает целеустремлённость и желание стать сильнее. Впереди их ждёт долгий и тернистый путь, несущий им множество сражений.--Дополнительную информацию можете найти на: AniDB || WA || MAL--Озвучивание: Ancord, Oriko
Перевод: Miss Sherlokian
Тайминг и работа со звуком: Sheeze, Fraksinus--Качество: HDTVRip
Формат: mp4
Видео: AVC, 1280x720, ~2300 Кбит/сек, 23,976 кадра/сек
Аудио RUS: AAC, 48,0 КГц, 192 Кбит/сек, 2 канала--

Media Info

Общее
Полное имя                               : D:\Root\anime\[AniDub]_Phantasy_Star_Online_2_The_Animation_[720p]_[Ancord_&_Oriko]\[AniDub]_Phantasy_Star_Online_2_The_Animation_[01]_[720p_x264_Aac]_[Ancord_&_Oriko].mp4
Формат                                   : MPEG-4
Профиль формата                          : Base Media
Идентификатор кодека                     : isom
Размер файла                             : 450 Мбайт
Продолжительность                        : 24 м.
Режим общего битрейта                    : Переменный
Общий поток                              : 2543 Кбит/сек
Дата кодирования                         : UTC 2016-01-08 21:46:17
Дата пометки                             : UTC 2016-01-08 21:46:17
Программа кодирования                    : Yamb 2.1.0.0 [http://yamb.unite-video.com]
Видео
Идентификатор                            : 1
Формат                                   : AVC
Формат/Информация                        : Advanced Video Codec
Профиль формата                          : [email protected]
Параметр CABAC формата                   : Да
Параметр ReFrames формата                : 3 кадра
Параметр GOP формата                     : M=4, N=23
Идентификатор кодека                     : avc1
Идентификатор кодека/Информация          : Advanced Video Coding
Продолжительность                        : 24 м.
Вид битрейта                             : Переменный
Битрейт                                  : 2347 Кбит/сек
Максимальный битрейт                     : 19,2 Мбит/сек
Ширина                                   : 1280 пикселей
Высота                                   : 720 пикселей
Соотношение сторон                       : 16:9
Режим частоты кадров                     : Переменный
Частота кадров                           : 23,976 кадра/сек
Минимальная частота кадров               : 23,976 кадра/сек
Максимальная частота кадров              : 23,988 кадра/сек
Стандарт вещания                         : NTSC
Цветовое пространство                    : YUV
Субдискретизация насыщенности            : 4:2:0
Битовая глубина                          : 8 бит
Тип развёртки                            : Прогрессивная
Бит/(Пиксели*Кадры)                      : 0.106
Размер потока                            : 415 Мбайт (92%)
Язык                                     : English
Дата кодирования                         : UTC 2016-01-08 07:24:32
Дата пометки                             : UTC 2016-01-08 21:46:19
Цветовой диапазон                        : Limited
Аудио
Идентификатор                            : 2
Формат                                   : AAC
Формат/Информация                        : Advanced Audio Codec
Профиль формата                          : LC
Идентификатор кодека                     : 40
Продолжительность                        : 24 м.
Вид битрейта                             : Переменный
Битрейт                                  : 192 Кбит/сек
Максимальный битрейт                     : 196 Кбит/сек
Каналы                                   : 2 канала
Расположение каналов                     : Front: L R
Частота                                  : 48,0 КГц
Метод сжатия                             : С потерями
Размер потока                            : 34,0 Мбайт (8%)
Язык                                     : English
Дата кодирования                         : UTC 2016-01-08 21:46:18
Дата пометки                             : UTC 2016-01-08 21:46:19
-

Скриншоты



Последний раз редактировалось: Choris (2016-04-14 16:54), всего редактировалось 7 раз(а)

Создавать темы 24-Янв-2016 13:19

[Профиль]  [ЛС] 

Choris ®

Стаж: 2 года 7 месяцев

Сообщений: 61

Симпатии: 54

4 Серия

Создавать темы 06-Фев-2016 05:22

[Профиль]  [ЛС] 

krocki

Стаж: 2 года 8 месяцев

Сообщений: 57

Симпатии: 1

Кто нибудь встаньте на раздачу...блин! ac

Создавать темы 16-Фев-2016 16:25

[Профиль]  [ЛС] 

Choris ®

Стаж: 2 года 7 месяцев

Сообщений: 61

Симпатии: 54

6 серия

Создавать темы 28-Фев-2016 13:12

[Профиль]  [ЛС] 

Choris ®

Стаж: 2 года 7 месяцев

Сообщений: 61

Симпатии: 54

10 серия-Извиняюсь за задержку

Создавать темы 30-Мар-2016 17:14

[Профиль]  [ЛС] 

Choris ®

Стаж: 2 года 7 месяцев

Сообщений: 61

Симпатии: 54

12 серия [Конец]

Создавать темы 14-Апр-2016 16:53

[Профиль]  [ЛС] 
Показать сообщения:    
Ответить на тему

Текущее время: 18-Дек 04:38

Часовой пояс: UTC + 5



Вы не можете начинать темы
Вы не можете отвечать на сообщения
Вы не можете редактировать свои сообщения
Вы не можете удалять свои сообщения
Вы не можете голосовать в опросах
Вы не можете прикреплять файлы к сообщениям
Вы не можете скачивать файлы