Класс Убийц ТВ-2 / Ansatsu Kyoushitsu TV-2 (Киси Сэйдзи) [TV] [RUS] [AniDub] [07 из 25] [2016, комедия, мистика, школа, HDTVRip 720p]

Ответить на тему
 

Choris ®

Стаж: 2 года 5 месяцев

Сообщений: 61

Симпатии: 54

--Год выпуска: 2016
Страна: Япония
Жанр: комедия, мистика, школа
Тип: TV
Продолжительность: 12 эп. по 25 мин.
Режиссер: Киси Сэйдзи
Студия: --Описание:
    Прямое продолжение первого сезона. В книгах написано «чти учителя своего», но скажите честно: разве вам в школе не попадались педагоги, которых хотелось чем-то от души приголубить… с летальным исходом? Вы-то наверняка удержались, а вот ребятам из 9-го «Е» японской школы «Дубовые холмы» сдерживаться противопоказано. Последний в параллели класс хулиганов, лентяев и чудиков внезапно получает в свои руки судьбу мира, а задача у него одна – любым способом и с чьей угодно помощью убить собственного классного руководителя в течение учебного года!
    Зачем так резко? Да затем, что Коро-сэнсэй, вообще-то – тыквоголовый пришелец, обожающий уничтожать планеты. С Луной маньяк справился на раз, а Земле дал отсрочку, предложив сыграть в описанную выше игру. Учитель он, кстати, хороший: спокоен, позитивен, всегда поможет, объяснит, разберет ошибки, в том числе и в науке устранения ближнего и дальнего. Только до самого не доберешься – добрый наставник быстрее пуль, а любого супермена скрутит щупальцами в бараний рог. Одна надежда на японскую культуру – может, удастся на сэппуку уговорить?
© Hollow, World Art--Дополнительная информация: AniDB||WA||MAL--Озвучивание: FruKt, Jade
Перевод: Oni
Тайминг и работа со звуком: Don_Sudak--Качество: HDTVRip
Формат: MP4
Видео: AVC, 1280x720, 2149 Кбит/сек, 23,976 кадра/сек
Аудио RUS: AAC, 48,0 КГц, 192 Кбит/сек, 2 канала

Media Info

Общее
Полное имя                               : D:\Root\anime\[AniDub]_Ansatsu_Kyoushitsu_TV-2_[720p]_[FruKt_Jade]\[AniDub]_Ansatsu_Kyoushitsu_TV-2_[01]_[720p_x264_Aac]_[FruKt_Jade].mp4
Формат                                   : MPEG-4
Профиль формата                          : Base Media
Идентификатор кодека                     : isom (isom)
Размер файла                             : 386 Мбайт
Продолжительность                        : 23 м.
Режим общего битрейта                    : Переменный
Общий поток                              : 2345 Кбит/сек
Дата кодирования                         : UTC 2016-01-08 07:20:56
Дата пометки                             : UTC 2016-01-08 07:20:56
Программа кодирования                    : Yamb 2.1.0.0 [http://yamb.unite-video.com]
Видео
Идентификатор                            : 2
Формат                                   : AVC
Формат/Информация                        : Advanced Video Codec
Профиль формата                          : [email protected]
Параметр CABAC формата                   : Да
Параметр ReFrames формата                : 4 кадра
Идентификатор кодека                     : avc1
Идентификатор кодека/Информация          : Advanced Video Coding
Продолжительность                        : 23 м.
Битрейт                                  : 2149 Кбит/сек
Максимальный битрейт                     : 16,8 Мбит/сек
Ширина                                   : 1280 пикселей
Высота                                   : 720 пикселей
Соотношение сторон                       : 16:9
Режим частоты кадров                     : Постоянный
Частота кадров                           : 23,976 (24000/1001) кадра/сек
Цветовое пространство                    : YUV
Субдискретизация насыщенности            : 4:2:0
Битовая глубина                          : 8 бит
Тип развёртки                            : Прогрессивная
Бит/(Пиксели*Кадры)                      : 0.097
Размер потока                            : 353 Мбайт (92%)
Библиотека кодирования                   : x264 core 148 r2638 7599210
Настройки программы                      : cabac=1 / ref=3 / deblock=1:0:0 / analyse=0x1:0x111 / me=hex / subme=7 / psy=1 / psy_rd=1.00:0.00 / mixed_ref=1 / me_range=16 / chroma_me=1 / trellis=1 / 8x8dct=0 / cqm=0 / deadzone=21,11 / fast_pskip=1 / chroma_qp_offset=-2 / threads=12 / lookahead_threads=2 / sliced_threads=0 / nr=0 / decimate=1 / interlaced=0 / bluray_compat=0 / constrained_intra=0 / bframes=3 / b_pyramid=2 / b_adapt=1 / b_bias=0 / direct=1 / weightb=1 / open_gop=0 / weightp=2 / keyint=240 / keyint_min=1 / scenecut=40 / intra_refresh=0 / rc_lookahead=40 / rc=crf / mbtree=1 / crf=20.0 / qcomp=0.60 / qpmin=0 / qpmax=69 / qpstep=4 / ip_ratio=1.40 / aq=1:1.50
Дата кодирования                         : UTC 2016-01-07 18:08:48
Дата пометки                             : UTC 2016-01-08 07:21:24
Цветовой диапазон                        : Limited
Основные цвета                           : BT.709
Характеристики трансфера                 : BT.709
Коэффициенты матрицы                     : BT.709
Аудио
Идентификатор                            : 1
Формат                                   : AAC
Формат/Информация                        : Advanced Audio Codec
Профиль формата                          : LC
Идентификатор кодека                     : 40
Продолжительность                        : 22 м.
Вид битрейта                             : Переменный
Битрейт                                  : 192 Кбит/сек
Максимальный битрейт                     : 196 Кбит/сек
Каналы                                   : 2 канала
Расположение каналов                     : Front: L R
Частота                                  : 48,0 КГц
Частота кадров                           : 46,875 кадров/сек (1024 spf)
Метод сжатия                             : С потерями
Размер потока                            : 31,6 Мбайт (8%)
Язык                                     : English
Дата кодирования                         : UTC 2016-01-08 07:20:56
Дата пометки                             : UTC 2016-01-08 07:21:24

Скриншоты:



Последний раз редактировалось: Choris (2016-04-05 20:55), всего редактировалось 5 раз(а)

Создавать темы 24-Янв-2016 13:35

[Профиль]  [ЛС] 

Choris ®

Стаж: 2 года 5 месяцев

Сообщений: 61

Симпатии: 54

4 Серия

Создавать темы 10-Фев-2016 11:40

[Профиль]  [ЛС] 

Choris ®

Стаж: 2 года 5 месяцев

Сообщений: 61

Симпатии: 54

5 Серия

Создавать темы 14-Фев-2016 12:29

[Профиль]  [ЛС] 

imusaevn

Стаж: 1 год 9 месяцев

Сообщений: 2

Симпатии: 10

Choris, раздача будет?

Создавать темы 14-Фев-2016 15:55

[Профиль]  [ЛС] 

Choris ®

Стаж: 2 года 5 месяцев

Сообщений: 61

Симпатии: 54

6 Серия

Создавать темы 28-Фев-2016 13:17

[Профиль]  [ЛС] 

Choris ®

Стаж: 2 года 5 месяцев

Сообщений: 61

Симпатии: 54

7 серия

Создавать темы 30-Мар-2016 17:10

[Профиль]  [ЛС] 
Показать сообщения:    
Ответить на тему

Текущее время: 22-Окт 18:56

Часовой пояс: UTC + 5



Вы не можете начинать темы
Вы не можете отвечать на сообщения
Вы не можете редактировать свои сообщения
Вы не можете удалять свои сообщения
Вы не можете голосовать в опросах
Вы не можете прикреплять файлы к сообщениям
Вы не можете скачивать файлы