Пилa 7: Лoвушки oживают 3Д / Sаw: The Finаl Chаpter 3D (Кевин Гротерт / Kevin Greutert) [2010 г., Ужасы, Детектив, BDRip-AVC]

Ответить на тему
 

sepultator ®

Стаж: 4 года 9 месяцев

Сообщений: 20

Симпатии: 13

Пилa 7: Лoвушки oживают 3Д / Sаw: The Finаl Chаpter 3D
(Полная версия / Unrated)-- Год выпуска: 2010
Страна: США (Lionsgate, Twisted Pictures)
Жанр: Ужасы, Детектив
Продолжительность: 01:30:09
Перевод: Профессиональный (полное дублирование)--Режиссер: Кевин Гротерт / Kevin Greutert
В ролях: Костас Мэндилор, Шон Патрик Флэнери, Тобин Белл, Кэри Элвис, Бетси Расселл, Дин Армстронг, Чэд Донелла, Джина Холден, Лоуренс Энтони, Наоми Сникус, Ребекка Маршалл
Описание: Жертвы Пилы, выжившие в предыдущих испытаниях, обращаются за психологической помощью к товарищу по несчастью Бобби Дагену. Но когда его собственные темные тайны всплывают на свет, развязывается новая волна террора
Роли дублировали: Радик Мухаметзянов, Илья Бледный, Александр Новиков, Александр Рахленко, Елена Соловьева, Михаил Тихонов, Василий Дахненко, Наталья Грачева, Дмитрий Курта, Иван Жарков--Качество: BDRip-AVC
Формат: MKV
Формат3D: Half OverUnder / Вертикальная анаморфная стереопара
Видео кодек: H.26x
Аудио кодек: AC3
Видео: AVC / 1920х1080p / 23,976 fps / 19.7 Mbps
Аудио#1: Русский / AC3 / 48 KHz / 5.1 ch / 640 Kbps
Аудио#2: Английский / AC3 / 48 KHz / 5.1 ch / 640 Kbps
Субтитры: Отсутствуют--

MediaInfo

General
UniqueID : 173794608640955628827670862609449439628 (0x82BF9FC4B87764C59E36DBA8A4DF518C)
Complete name : Saw3D.2010.halfOU.AC3(TopGun).mkv
Format : Matroska
File size : 13.5 GiB
Duration : 1h 30mn
Overall bit rate : 21.4 Mbps
Movie name : Saw VII 3D (TopGun)
Encoded date : UTC 2011-11-24 19:38:57
Writing application : mkvmerge v3.4.0 ('Rapunzel') сборка от May 15 2010 09:38:20
Writing library : libebml v0.8.0 + libmatroska v0.9.0
Video
ID : 1
Format : AVC
Format/Info : Advanced Video Codec
Format profile : [email protected]
Format settings, CABAC : Yes
Format settings, ReFrames : 4 frames
Format settings, GOP : M=1, N=16
Codec ID : V_MPEG4/ISO/AVC
Duration : 1h 30mn
Bit rate : 19.7 Mbps
Width : 1 920 pixels
Height : 1 080 pixels
Display aspect ratio : 16:9
Frame rate : 23.976 fps
Color space : YUV
Chroma subsampling : 4:2:0
Bit depth : 8 bits
Scan type : Progressive
Bits/(Pixel*Frame) : 0.395
Stream size : 12.4 GiB (92%)
Title : BDRip by TopGun
Writing library : x264 core 116 r2074 2641b9e
Encoding settings : cabac=1 / ref=4 / deblock=1:-3:-3 / analyse=0x3:0x133 / me=umh / subme=9 / psy=1 / psy_rd=1.00:0.20 / mixed_ref=1 / me_range=16 / chroma_me=1 / trellis=2 / 8x8dct=1 / cqm=0 / deadzone=21,11 / fast_pskip=1 / chroma_qp_offset=-3 / threads=6 / sliced_threads=0 / nr=0 / decimate=1 / interlaced=0 / bluray_compat=0 / constrained_intra=0 / bframes=7 / b_pyramid=2 / b_adapt=2 / b_bias=0 / direct=3 / weightb=1 / open_gop=0 / weightp=2 / keyint=250 / keyint_min=23 / scenecut=40 / intra_refresh=0 / rc_lookahead=40 / rc=crf / mbtree=1 / crf=18.0 / qcomp=0.70 / qpmin=10 / qpmax=69 / qpstep=4 / vbv_maxrate=40000 / vbv_bufsize=30000 / crf_max=0.0 / nal_hrd=none / ip_ratio=1.40 / aq=1:0.70
Audio #1
ID : 2
Format : AC-3
Format/Info : Audio Coding 3
Mode extension : CM (complete main)
Codec ID : A_AC3
Duration : 1h 30mn
Bit rate mode : Constant
Bit rate : 640 Kbps
Channel(s) : 6 channels
Channel positions : Front: L C R, Side: L R, LFE
Sampling rate : 48.0 KHz
Bit depth : 16 bits
Compression mode : Lossy
Stream size : 413 MiB (3%)
Title : Дубляж AC3 640 кбит/сек
Language : Russian
Audio #2
ID : 3
Format : AC-3
Format/Info : Audio Coding 3
Mode extension : CM (complete main)
Codec ID : A_AC3
Duration : 1h 30mn
Bit rate mode : Constant
Bit rate : 640 Kbps
Channel(s) : 6 channels
Channel positions : Front: L C R, Side: L R, LFE
Sampling rate : 48.0 KHz
Bit depth : 16 bits
Compression mode : Lossy
Stream size : 413 MiB (3%)
Language : English
Menu
00:00:00.000 : :1. Public Announcement
00:05:13.480 : :2. Love Triangle
00:12:58.653 : :3. Reborn
00:17:16.786 : :4. Worst Nightmare
00:22:07.743 : :5. Finding The Positive
00:27:29.231 : :6. Expecting You
00:36:06.956 : :7. New Game
00:43:04.207 : :8. We've Met
00:47:54.413 : :9. Hold On
00:52:00.826 : :10. Hears No Evil
00:57:09.926 : :11. Beyond The Crossroads
01:03:09.077 : :12. I Lied
01:10:28.891 : :13. Back In Action
01:14:13.574 : :14. Now Do I Look ?
01:19:01.153 : :15. Time's Up
01:23:47.189 : :16. Game Over
--

Скриншоты



Создавать темы 24-Янв-2016 16:31

[Профиль]  [ЛС] 

sepultator ®

Стаж: 4 года 9 месяцев

Сообщений: 20

Симпатии: 13

965847sepultator, когда раздавать будешь?
раздаю

Создавать темы 26-Янв-2016 22:01

[Профиль]  [ЛС] 

avatar-10-2000

Стаж: 6 лет 5 месяцев

Сообщений: 53

Симпатии: 2

А можно как нибудь сделать чтобы видео распологались не вертикально а горизонтально?)

Создавать темы 18-Июл-2016 00:50

[Профиль]  [ЛС] 

Barez Tires

Стаж: 1 год 10 месяцев

Сообщений: 4

Симпатии: 1

А есть у кого, что раздать?

Создавать темы 21-Июл-2016 15:16

[Профиль]  [ЛС] 
Показать сообщения:    
Ответить на тему

Текущее время: 19-Окт 23:16

Часовой пояс: UTC + 5



Вы не можете начинать темы
Вы не можете отвечать на сообщения
Вы не можете редактировать свои сообщения
Вы не можете удалять свои сообщения
Вы не можете голосовать в опросах
Вы не можете прикреплять файлы к сообщениям
Вы не можете скачивать файлы