Новые приключения кота Леопольда (01-13 серии из 13) (2015) SATRip

Ответить на тему
 

Sunnat1999 ®

Стаж: 4 года 7 месяцев

Сообщений: 756

Симпатии: 416

Новые приключения кота ЛеопольдаСерии 1-13 из 13 -- Год выпуска: 2015
Производство: Россия, Русское мобильное телевидение
Жанр: мультсериал, рисованный, детский
Продолжительность: ~00:15:00 серия
Режиссёр: Анатолий Резников-Роли озвучивали: Александр Калягин, Диомид Виноградов, Андрей Бархударов-Описание: Продолжение историй об интеллигентном коте, который всегда приветлив и всегда носит галстук-бабочку. Двое мышат, Серый и Белый, постоянно доставляют Леопольду уйму неприятностей. Но что бы они ни придумывали, все их попытки заканчиваются неудачами. И даже в самые трудные моменты, когда, казалось бы, от мышей нет спасения, кот Леопольд не устает повторять девиз всей своей жизни: «Ребята, давайте жить дружно!».-Качество: SATRip
Формат: AVI
Видео кодек: XviD
Аудио кодек: AC3
Видео: XviD, ~ 1450 Кбит/с, 720х400
Аудио: AC3, 2 ch, 192 Кбит/с
-

MI

Общее
Полное имя : \Novye.Prikljuchenija.Leopolda.2015.XviD.SATRip.by.GeneralFilm\01 серия.avi
Формат : AVI
Формат/Информация : Audio Video Interleave
Размер файла : 148 Мбайт
Продолжительность : 12 м.
Общий поток : 1652 Кбит/сек
Программа кодирования : VirtualDubMod 1.5.10.3 | www.virtualdub-fr.org || (build 2550/release)
Библиотека кодирования : VirtualDubMod build 2550/release
Видео
Идентификатор : 0
Формат : MPEG-4 Visual
Профиль формата : Advanced Simple@L5
Параметр BVOP формата : 1
Параметр QPel формата : Нет
Параметр GMC формата : Без точки перехода
Параметр матрицы формата : Выборочная
Идентификатор кодека : XVID
Идентификатор кодека/Подсказка : XviD
Продолжительность : 12 м.
Битрейт : 1450 Кбит/сек
Ширина : 720 пикселей
Высота : 400 пикселей
Соотношение сторон : 16:9
Частота кадров : 25,000 кадров/сек
Цветовое пространство : YUV
Субдискретизация насыщенности : 4:2:0
Битовая глубина : 8 бит
Тип развёртки : Прогрессивная
Метод сжатия : С потерями
Бит/(Пиксели*Кадры) : 0.201
Размер потока : 130 Мбайт (88%)
Библиотека кодирования : XviD 73
Аудио
Идентификатор : 1
Формат : AC-3
Формат/Информация : Audio Coding 3
Расширение режима : CM (complete main)
Параметр Endianness формата : Big
Идентификатор кодека : 2000
Продолжительность : 12 м.
Вид битрейта : Постоянный
Битрейт : 192 Кбит/сек
Каналы : 2 канала
Расположение каналов : Front: L R
Частота : 48,0 КГц
Битовая глубина : 16 бит
Метод сжатия : С потерями
Размер потока : 17,2 Мбайт (12%)
Выравнивание : Разделение по промежуткам
Продолжительность промежутка : 40 мс. (1,00 видеокадр)
Время предзагрузки промежутка : 500 мс.

Скриншоты



Создавать темы 25-Янв-2016 09:42

[Профиль]  [ЛС] 
Показать сообщения:    
Ответить на тему

Текущее время: 19-Окт 03:16

Часовой пояс: UTC + 5



Вы не можете начинать темы
Вы не можете отвечать на сообщения
Вы не можете редактировать свои сообщения
Вы не можете удалять свои сообщения
Вы не можете голосовать в опросах
Вы не можете прикреплять файлы к сообщениям
Вы не можете скачивать файлы