Самый лучший день (Жора Крыжовников) [2015, комедия, музыка, WEB-DLRip]

Ответить на тему
 

atgerkin ®

Стаж: 6 лет 11 месяцев

Сообщений: 247

Симпатии: 78

Самый лучший день-- Жанр: комедия, музыка
Год выпуска: 2015
Продолжительность: 01:46:54-Режиссёр: Жора Крыжовников-В ролях: Дмитрий Нагиев, Юлия Александрова, Ольга Серябкина, Инна Чурикова, Михаил Боярский, Елена Яковлева, Владислав Ветров, Валентина Мазунина, Ян Цапник, Андрей Малахов-Описание: Успешному сотруднику ДПС Пете Васютину уже давно пора заводить семью, а он живет с мамой, хозяйкой придорожного кафе. И невеста есть - королева бензоколонки, кассирша Оля. В тот самый день, когда Петя решает сделать Оле предложение, в его служебную машину врезается пьяная поп-звезда Алина Шёпот. Чтобы избежать наказания, Алина решает соблазнить Петю...-Доп. информация:
 
-Качество видео: WEB-DLRip
Формат видео: AVI-Видео: XviD, 1568 kb/s, 720x400
Аудио: AC3, 384 kb/s (6 ch)

MediaInfo

Общее
Полное имя : Camyi.Lu4wii.Deny.2015.O.WEB-DLRip.avi
Формат : AVI
Формат/Информация : Audio Video Interleave
Размер файла : 1,46 Гбайт
Продолжительность : 1 ч. 46 м.
Общий поток : 1962 Кбит/сек
Программа кодирования : VirtualDubMod 1.5.10.3 | www.virtualdub-fr.org || (build 2550/release)
Библиотека кодирования : VirtualDubMod build 2550/release
Видео
Идентификатор : 0
Формат : MPEG-4 Visual
Профиль формата : Advanced [email protected]
Параметр BVOP формата : 2
Параметр QPel формата : Нет
Параметр GMC формата : Без точки перехода
Параметр матрицы формата : Default (MPEG)
Идентификатор кодека : XVID
Идентификатор кодека/Подсказка : XviD
Продолжительность : 1 ч. 46 м.
Битрейт : 1568 Кбит/сек
Ширина : 720 пикселей
Высота : 400 пикселей
Соотношение сторон : 16:9
Частота кадров : 24,000 кадра/сек
Цветовое пространство : YUV
Субдискретизация насыщенности : 4:2:0
Битовая глубина : 8 бит
Тип развёртки : Прогрессивная
Метод сжатия : С потерями
Бит/(Пиксели*Кадры) : 0.227
Размер потока : 1,17 Гбайт (80%)
Библиотека кодирования : XviD 1.2.1 (UTC 2008-12-04)
Аудио
Идентификатор : 1
Формат : AC-3
Формат/Информация : Audio Coding 3
Расширение режима : CM (complete main)
Параметр Endianness формата : Big
Идентификатор кодека : 2000
Продолжительность : 1 ч. 46 м.
Вид битрейта : Постоянный
Битрейт : 384 Кбит/сек
Каналы : 6 каналов
Расположение каналов : Front: L C R, Side: L R, LFE
Частота : 48,0 КГц
Битовая глубина : 16 бит
Метод сжатия : С потерями
Размер потока : 294 Мбайт (20%)
Выравнивание : Разделение по промежуткам
Продолжительность промежутка : 42 мс. (1,00 видеокадр)
Время предзагрузки промежутка : 500 мс.

Скриншоты





Последний раз редактировалось: atgerkin (2016-01-25 10:45), всего редактировалось 1 раз

Создавать темы 25-Янв-2016 10:02

[Профиль]  [ЛС] 

atgerkin ®

Стаж: 6 лет 11 месяцев

Сообщений: 247

Симпатии: 78

Не пойму что за фигня. Невозможно зарегистрировать торрент

Создавать темы 25-Янв-2016 10:53

[Профиль]  [ЛС] 

Windtrader

Стаж: 6 лет 7 месяцев

Сообщений: 13

Симпатии: 2

Фильм Супер ! Спасибо за раздачу !!!

Создавать темы 05-Фев-2016 15:47

[Профиль]  [ЛС] 

BenzZzinE

Стаж: 6 лет 11 месяцев

Сообщений: 30

Симпатии: 7

ребят... дайте скорости плиз

Создавать темы 05-Мар-2017 13:54

[Профиль]  [ЛС] 
Показать сообщения:    
Ответить на тему

Текущее время: 18-Ноя 20:55

Часовой пояс: UTC + 5



Вы не можете начинать темы
Вы не можете отвечать на сообщения
Вы не можете редактировать свои сообщения
Вы не можете удалять свои сообщения
Вы не можете голосовать в опросах
Вы не можете прикреплять файлы к сообщениям
Вы не можете скачивать файлы