Лунная афера / Moonwalkers (Антуан Барду-Жаке) [2015, Франция, Комедия, HDRip] MVO [iTunes]

Ответить на тему
 

ruhal ®

Стаж: 2 года 8 месяцев

Сообщений: 1181

Симпатии: 1836

- -Лунная афера / Moonwalkers- Страна: Франция
Жанр: Комедия
Год выпуска: 2015
Продолжительность: 01:36:22-Перевод: Профессиональный (многоголосый) [iTunes]
Cубтитры: нет-Режиссер: Антуан Барду-Жаке-В ролях: Руперт Гринт, Рон Перлман, Роберт Шиэн,
Стивен Кэмпбелл Мур, Том Ауденарт, Кевин Бишоп, Эрик Лёмпарт, Эрика Сэйнт, Джей Бенедикт, Джон Фландерс-Описание: Тайный агент ЦРУ отправляется в Лондон, чтобы разыскать там Стэнли Кубрика и заказать ему фильм
про высадку астронавтов на лунную поверхность на случай провала реальной миссии. Но вместо Кубрика агент
нарывается на афериста Джонни, который устраивает съемки сверхсекретного видео на стремной студии порнофильмов,
где невесомость достигается благодаря крепкому косяку…-Качество видео: HDRip
Формат видео: AVI
Видео: Xvid 720x304 23.976fps 1636kbps
Аудио: Dolby AC3 48000Hz 6ch 384kbps
-

MediaInfo

General
Complete name : E:\Films\LuHHa1a.AFePa.2015.D.HDRip.1400MB.avi
Format : AVI
Format/Info : Audio Video Interleave
File size : 1.37 GiB
Duration : 1h 36mn
Overall bit rate : 2 030 Kbps
Writing application : VirtualDubMod 1.5.10.2 (build 2540/release)
Writing library : VirtualDubMod build 2540/release
Video
ID : 0
Format : MPEG-4 Visual
Format profile : Advanced [email protected]
Format settings, BVOP : 2
Format settings, QPel : No
Format settings, GMC : No warppoints
Format settings, Matrix : Default (MPEG)
Codec ID : XVID
Codec ID/Hint : XviD
Duration : 1h 36mn
Bit rate : 1 637 Kbps
Width : 720 pixels
Height : 304 pixels
Display aspect ratio : 2.35:1
Frame rate : 23.976 fps
Color space : YUV
Chroma subsampling : 4:2:0
Bit depth : 8 bits
Scan type : Progressive
Compression mode : Lossy
Bits/(Pixel*Frame) : 0.312
Stream size : 1.10 GiB (81%)
Writing library : XviD 1.2.1 (UTC 2008-12-04)
Audio
ID : 1
Format : AC-3
Format/Info : Audio Coding 3
Mode extension : CM (complete main)
Format settings, Endianness : Big
Codec ID : 2000
Duration : 1h 36mn
Bit rate mode : Constant
Bit rate : 384 Kbps
Channel(s) : 6 channels
Channel positions : Front: L C R, Side: L R, LFE
Sampling rate : 48.0 KHz
Bit depth : 16 bits
Compression mode : Lossy
Stream size : 265 MiB (19%)
Alignment : Split accross interleaves
Interleave, duration : 42 ms (1.00 video frame)
Interleave, preload duration : 500 ms

Скриншот c названием фильма

Скриншоты





Последний раз редактировалось: ruhal (2016-03-06 22:30), всего редактировалось 6 раз(а)

Создавать темы 25-Янв-2016 11:48

[Профиль]  [ЛС] 

ruhal ®

Стаж: 2 года 8 месяцев

Сообщений: 1181

Симпатии: 1836

Комедия - огонь! Всем очень советую

Комментарий от kat222000


Забыли...)))

Создавать темы 25-Янв-2016 11:50

[Профиль]  [ЛС] 

kat222000

Стаж: 6 лет 8 месяцев

Сообщений: 608

Симпатии: 1055

Спасибо...)))

Создавать темы 25-Янв-2016 22:21

[Профиль]  [ЛС] 

Theofrast

Стаж: 6 лет 10 месяцев

Сообщений: 33

Симпатии: 30

Хороший, годный фильм!
Озвучка, честно говоря, не очень понравилась, но сойдет и так.
Я таких тупых комедий уже лет 15 не видел, когда осознаешь полный идиотизм происходящего на экране, но все равно смеешься над кривлянием артистов.
Рыжий классно свою роль отыграл, далеко пойдет. Остальные тоже молодцы.
Вспоминая "лунный заговор", теперь хочется сказать, - так оно и было, фильм снят по мотивам реальных событий.
:)

Создавать темы 01-Фев-2016 18:26

[Профиль]  [ЛС] 

ruhal ®

Стаж: 2 года 8 месяцев

Сообщений: 1181

Симпатии: 1836

Перезалил iTunes озвучку. КАЧАЕМ!

Создавать темы 06-Мар-2016 22:28

[Профиль]  [ЛС] 
Показать сообщения:    
Ответить на тему

Текущее время: 16-Дек 14:11

Часовой пояс: UTC + 5



Вы не можете начинать темы
Вы не можете отвечать на сообщения
Вы не можете редактировать свои сообщения
Вы не можете удалять свои сообщения
Вы не можете голосовать в опросах
Вы не можете прикреплять файлы к сообщениям
Вы не можете скачивать файлы