Отцы и дочери / Fathers and Daughters (Габриэле Муччино) [2015, США, Италия, Драма, HDRip] DVO [Parovoz Production]

Ответить на тему
 

ruhal ®

Стаж: 2 года 6 месяцев

Сообщений: 1181

Симпатии: 1836

- -Отцы и дочери / Fathers and Daughters-
Страна: США, Италия
Жанр: Драма
Год выпуска: 2015
Продолжительность: 01:56:44-Перевод: Любительский (двухголосый) Parovoz Production
Cубтитры: нет-Режиссер: Габриэле Муччино-В ролях: Рассел Кроу, Аманда Сайфред, Джейн Фонда, Аарон Пол,
Дайан Крюгер, Райан Игголд, Брюс Гринвуд, Куавенжане Уоллис, Джанет МакТир, Октавия Спенсер-Описание: История отца и дочери, живущих на Манхэттене. В прошлом персонаж Кроу — знаменитый писатель,
вдовец и страдающий от психических расстройств человек — пытается вырастить 5-летнюю дочь и буквально не сойти с ума,
ну а в настоящем, героиня Сейфрид, уже повзрослевшая дочка сражается с собственными демонами.-Качество видео: HDRip
Формат видео: AVI
Видео: Xvid 720x304 24fps 1334kbps
Аудио: Dolby AC3 48000Hz stereo 192kbps [Rus]
Аудио 2: Dolby AC3 48000Hz stereo 256kbps [Eng]

MediaInfo

General
Complete name : E:\Films\Otcy.i.Docheri.2015.L2.BDRip.1.46Gb_MegaPeer_by_Twi7ter.avi
Format : AVI
Format/Info : Audio Video Interleave
File size : 1.46 GiB
Duration : 1h 56mn
Overall bit rate : 1 797 Kbps
Movie name : Otcy.i.Docheri.2015.L2.BDRip.1.46Gb_MegaPeer_by_Twi7ter
Director : Twi7ter
Genre : Drama
Writing application : VirtualDubMod 1.5.10.3 (build 2550/release)
Original source form/Name : Movie
Video
ID : 0
Format : MPEG-4 Visual
Format profile : Advanced [email protected]
Format settings, BVOP : 2
Format settings, QPel : No
Format settings, GMC : No warppoints
Format settings, Matrix : Custom
Codec ID : XVID
Codec ID/Hint : XviD
Duration : 1h 56mn
Bit rate : 1 335 Kbps
Width : 720 pixels
Height : 304 pixels
Display aspect ratio : 2.35:1
Frame rate : 24.000 fps
Color space : YUV
Chroma subsampling : 4:2:0
Bit depth : 8 bits
Scan type : Progressive
Compression mode : Lossy
Bits/(Pixel*Frame) : 0.254
Stream size : 1.09 GiB (74%)
Writing library : XviD 73
Audio #1
ID : 1
Format : AC-3
Format/Info : Audio Coding 3
Mode extension : CM (complete main)
Format settings, Endianness : Big
Codec ID : 2000
Duration : 1h 56mn
Bit rate mode : Constant
Bit rate : 192 Kbps
Channel(s) : 2 channels
Channel positions : Front: L R
Sampling rate : 48.0 KHz
Bit depth : 16 bits
Compression mode : Lossy
Stream size : 160 MiB (11%)
Alignment : Split accross interleaves
Interleave, duration : 42 ms (1.00 video frame)
Interleave, preload duration : 500 ms
Audio #2
ID : 2
Format : AC-3
Format/Info : Audio Coding 3
Mode extension : CM (complete main)
Format settings, Endianness : Big
Codec ID : 2000
Duration : 1h 56mn
Bit rate mode : Constant
Bit rate : 256 Kbps
Channel(s) : 2 channels
Channel positions : Front: L R
Sampling rate : 48.0 KHz
Bit depth : 16 bits
Compression mode : Lossy
Stream size : 213 MiB (14%)
Alignment : Split accross interleaves
Interleave, duration : 42 ms (1.00 video frame)
Interleave, preload duration : 500 ms

Скриншот c названием фильма

Скриншоты



Создавать темы 25-Янв-2016 14:35

[Профиль]  [ЛС] 

Powered by GMC

Стаж: 2 года

Сообщений: 202

Симпатии: 31

как филмь?

Создавать темы 26-Янв-2016 16:20

[Профиль]  [ЛС] 
Показать сообщения:    
Ответить на тему

Текущее время: 23-Окт 03:53

Часовой пояс: UTC + 5



Вы не можете начинать темы
Вы не можете отвечать на сообщения
Вы не можете редактировать свои сообщения
Вы не можете удалять свои сообщения
Вы не можете голосовать в опросах
Вы не можете прикреплять файлы к сообщениям
Вы не можете скачивать файлы