Затмение / Regression (Алехандро Аменабар) [2015, Испания, Канада, Триллер, детектив, HDRip] MVO [Victory-Films]

Ответить на тему
 

ruhal ®

Стаж: 2 года 7 месяцев

Сообщений: 1181

Симпатии: 1836

- -Затмение / Regression- -Страна: Испания, Канада
Жанр: Триллер, детектив
Год выпуска: 2015
Продолжительность: 01:46:04-Перевод: Любительский (многоголосый) [Victory-Films]
Cубтитры: нет-Режиссер: Алехандро Аменабар-В ролях: Эмма Уотсон, Итэн Хоук, Дэвид Тьюлис, Девон Бостик, Аарон Эшмор,
Дейл Дикки, Давид Денсик, Адам Батчер, Кристиан Бруун, Аарон Абрамс-Описание: В ходе расследования дела Анджелы Грей детектив Брюс Киннер вынужден обратиться к психологу
для выявления ее подавленных воспоминаний. Сеанс регрессивного гипноза открывает ужасающие факты — по ночам с согласия
отца над девушкой проводились сатанинские ритуалы. Желая защитить девушку от преследования зловещего тайного общества,
детектив оказывается втянут в пугающий мир оккультизма. То, что ему противостоит, находится за гранью понимания и способно бросить вызов его убеждениям и вере.-Качество видео: HDRip
Формат видео: AVI
Видео: Xvid 720x304 23.976fps 1573kbps
Аудио: Dolby AC3 44100Hz stereo 192kbps[Rus]
Аудио 2: Dolby AC3 48000Hz 6ch 192kbp[Eng]
-

MediaInfo

General
Complete name : E:\Films\Regression.2015.1460MB.avi
Format : AVI
Format/Info : Audio Video Interleave
File size : 1.46 GiB
Duration : 1h 46mn
Overall bit rate : 1 972 Kbps
Writing application : VirtualDubMod 1.5.10.3 | www.virtualdub-fr.org || (build 2550/release)
Writing library : VirtualDubMod build 2550/release
Video
ID : 0
Format : MPEG-4 Visual
Format profile : Advanced [email protected]
Format settings, BVOP : 2
Format settings, QPel : No
Format settings, GMC : No warppoints
Format settings, Matrix : Default (MPEG)
Codec ID : XVID
Codec ID/Hint : XviD
Duration : 1h 46mn
Bit rate : 1 574 Kbps
Width : 720 pixels
Height : 304 pixels
Display aspect ratio : 2.35:1
Frame rate : 23.976 fps
Color space : YUV
Chroma subsampling : 4:2:0
Bit depth : 8 bits
Scan type : Progressive
Compression mode : Lossy
Bits/(Pixel*Frame) : 0.300
Stream size : 1.17 GiB (80%)
Writing library : XviD 1.2.1 (UTC 2008-12-04)
Audio #1
ID : 1
Format : AC-3
Format/Info : Audio Coding 3
Mode extension : CM (complete main)
Format settings, Endianness : Big
Codec ID : 2000
Duration : 1h 46mn
Bit rate mode : Constant
Bit rate : 192 Kbps
Channel(s) : 2 channels
Channel positions : Front: L R
Sampling rate : 44.1 KHz
Bit depth : 16 bits
Compression mode : Lossy
Stream size : 146 MiB (10%)
Alignment : Split accross interleaves
Interleave, duration : 42 ms (1.00 video frame)
Interleave, preload duration : 500 ms
Audio #2
ID : 2
Format : AC-3
Format/Info : Audio Coding 3
Mode extension : CM (complete main)
Format settings, Endianness : Big
Codec ID : 2000
Duration : 1h 46mn
Bit rate mode : Constant
Bit rate : 192 Kbps
Channel(s) : 6 channels
Channel positions : Front: L C R, Side: L R, LFE
Sampling rate : 48.0 KHz
Bit depth : 16 bits
Compression mode : Lossy
Stream size : 146 MiB (10%)
Alignment : Split accross interleaves
Interleave, duration : 42 ms (1.00 video frame)
Interleave, preload duration : 500 ms

Скриншоты



Создавать темы 26-Янв-2016 10:57

[Профиль]  [ЛС] 

жавохир

Стаж: 7 лет 3 месяца

Сообщений: 20

Симпатии: 4

Извините, а никто не знает когда лицуха?

Создавать темы 06-Фев-2016 08:53

[Профиль]  [ЛС] 

tatarin9211

Стаж: 4 года 6 месяцев

Сообщений: 6

Симпатии: 1

фильм то норм

Создавать темы 07-Фев-2016 20:27

[Профиль]  [ЛС] 

DEVASTATOR

Стаж: 5 лет 8 месяцев

Сообщений: 12

dayte speed

Создавать темы 14-Фев-2016 09:47

[Профиль]  [ЛС] 
Показать сообщения:    
Ответить на тему

Текущее время: 24-Ноя 23:45

Часовой пояс: UTC + 5



Вы не можете начинать темы
Вы не можете отвечать на сообщения
Вы не можете редактировать свои сообщения
Вы не можете удалять свои сообщения
Вы не можете голосовать в опросах
Вы не можете прикреплять файлы к сообщениям
Вы не можете скачивать файлы