Бэтмен: Дурная кровь / Batman: Bad Blood (Джей Олива / Jay Oliva) [2016, США, мультфильм, HDRip] (DVO : [LE-Production]) (Original Eng)

Ответить на тему
 

igor1968 ®

Стаж: 5 лет 6 месяцев

Сообщений: 366

Симпатии: 197

Бэтмен: Дурная кровь / Batman: Bad Blood Страна:
Жанр: мультфильм
Год выпуска: 2016
Продолжительность: 01:12:41
Перевод: Любительский (двухголосый закадровый) Доп. инфо о переводе [LE-Production]
Cубтитры: нет
Оригинальная аудиодорожка: английский
Режиссер: Джей Олива / Jay Oliva
В ролях: Стюарт Аллан, Морена Баккарин, Стивен Блум, Гай Чарльз, Джеймс Гаррет, Эрни Хадсон, Шон Маэр, Джейсон О’Мара, Ивонн Страховски, Трэвис Уиллингэм
В Готэме происходит неожиданное: некий еретик «убивает» Бэтмена, свидетелем чего становится Бэтвумен. Однако команде Летучей мыши горевать некогда, ведь зло не дремлет. Теперь оставшимся напарникам Бэтмена — Найтвингу (Дик Грейсон) и Робину (сын Бэтмена — Дэмиан Уэйн) — предстоит занять его пост и защищать жителей темного города.- -Доп. информация:
сценарий Дж. Эм.
продюсер Джеймс Такер
композитор Фредерик Вьедманн
монтаж Кристофер Д. Лозински
бюджет
$3 500 000
премьера
19 января 2016
Качество видео: HDRip
Формат видео: AVI
Видео: 720x400 (1.80:1), 23.976 fps, XviD build 50 ~1781 kbps avg, 0.26 bit/pixel
Аудио: 48 kHz, AC3 Dolby Digital, 3/2 (L,C,R,l,r) + LFE ch, ~448.00 kbps avg (rus)
Аудио 2: 48 kHz, AC3 Dolby Digital, 3/2 (L,C,R,l,r) + LFE ch, ~448.00 kbps avg (eng)-

MediaInfo

General
Complete name : D:\Batman.Bad.Blood.2016.L2.HDRip.TAS-IX.NET.1400Mb.avi
Format : AVI
Format/Info : Audio Video Interleave
File size : 1.37 GiB
Duration : 1h 12mn
Overall bit rate : 2 693 Kbps
Writing application : VirtualDubMod 1.5.10.2 (build 2540/release)
Writing library : VirtualDubMod build 2540/release
Video
ID : 0
Format : MPEG-4 Visual
Format profile : Advanced [email protected]
Format settings, BVOP : 2
Format settings, QPel : No
Format settings, GMC : No warppoints
Format settings, Matrix : Default (MPEG)
Codec ID : XVID
Codec ID/Hint : XviD
Duration : 1h 12mn
Bit rate : 1 783 Kbps
Width : 720 pixels
Height : 400 pixels
Display aspect ratio : 16:9
Frame rate : 23.976 fps
Color space : YUV
Chroma subsampling : 4:2:0
Bit depth : 8 bits
Scan type : Progressive
Compression mode : Lossy
Bits/(Pixel*Frame) : 0.258
Stream size : 927 MiB (66%)
Writing library : XviD 1.2.1 (UTC 2008-12-04)
Audio #1
ID : 1
Format : AC-3
Format/Info : Audio Coding 3
Mode extension : CM (complete main)
Format settings, Endianness : Big
Codec ID : 2000
Duration : 1h 12mn
Bit rate mode : Constant
Bit rate : 448 Kbps
Channel(s) : 6 channels
Channel positions : Front: L C R, Side: L R, LFE
Sampling rate : 48.0 KHz
Compression mode : Lossy
Stream size : 233 MiB (17%)
Alignment : Split accross interleaves
Interleave, duration : 42 ms (1.00 video frame)
Interleave, preload duration : 500 ms
Audio #2
ID : 2
Format : AC-3
Format/Info : Audio Coding 3
Mode extension : CM (complete main)
Format settings, Endianness : Big
Codec ID : 2000
Duration : 1h 12mn
Bit rate mode : Constant
Bit rate : 448 Kbps
Channel(s) : 6 channels
Channel positions : Front: L C R, Side: L R, LFE
Sampling rate : 48.0 KHz
Compression mode : Lossy
Stream size : 233 MiB (17%)
Alignment : Split accross interleaves
Interleave, duration : 42 ms (1.00 video frame)
Interleave, preload duration : 500 ms
- -Трейлер с КИНОПОИСК

Создавать темы 26-Янв-2016 22:25

[Профиль]  [ЛС] 

igor1968 ®

Стаж: 5 лет 6 месяцев

Сообщений: 366

Симпатии: 197

Перекачайте торрент ! По тех. причине пере залил . Приношу извинения за не удобства.

Создавать темы 28-Янв-2016 20:14

[Профиль]  [ЛС] 

TimaK

Стаж: 6 лет 4 месяца

Сообщений: 129

Симпатии: 23

Спасибо!

Создавать темы 30-Мар-2016 23:04

[Профиль]  [ЛС] 

xulita

Стаж: 6 лет 7 месяцев

Сообщений: 24

Симпатии: 5

Ребят...200 мб осталось...раздайте уже...три дня жду

Создавать темы 27-Июн-2016 09:20

[Профиль]  [ЛС] 

xulita

Стаж: 6 лет 7 месяцев

Сообщений: 24

Симпатии: 5

....включите раздачу

Создавать темы 29-Июн-2016 19:14

[Профиль]  [ЛС] 
Показать сообщения:    
Ответить на тему

Текущее время: 26-Сен 22:36

Часовой пояс: UTC + 5



Вы не можете начинать темы
Вы не можете отвечать на сообщения
Вы не можете редактировать свои сообщения
Вы не можете удалять свои сообщения
Вы не можете голосовать в опросах
Вы не можете прикреплять файлы к сообщениям
Вы не можете скачивать файлы