Королева пустыни / Queen of the Desert (Вернер Херцог) [2015, США, Марокко, Драма, биография, история, WEB-DLRip] (DVO)

Ответить на тему
 

ruhal ®

Стаж: 2 года 6 месяцев

Сообщений: 1181

Симпатии: 1836

-Королева пустыни / Queen of the Desert-
Страна: США, Марокко
Жанр: Драма, биография, история
Год выпуска: 2015
Продолжительность: 02:08:23-Перевод: Любительский (двухголосый)
Cубтитры: нет-Режиссер: Вернер Херцог-В ролях: Джеймс Франко, Николь Кидман, Роберт Паттинсон, Дэмиэн Льюис, Дженни Агаттер,
Холли Эрл, Дэвид Колдер, Бет Годдар, Джихад Абду, Марк Льюис Джонс-Описание: Фильм «Королева пустыни» — серьезная историко-биографическая работа.
Вполне возможно мир никогда бы не узнал имени этой путешественницы, если бы не несчастье в её личной жизни.
Вместе со своим любимым она просто хотела отправиться в захватывающее, романтическое(как минимум, для нее)
путешествие по пескам Аравии, чтобы насладиться красотами пламенных закатов пустыни и испытать себя в роли Шахеризады во время ночевок в шатрах.
Но ее возлюбленный умер от неизлечимой болезни и поездка не состоялась.
Гертруда дала сама себе клятву — в память о любимом она рано или поздно отправиться в экспедицию в Аравийскую пустыню.-Качество видео: WEB-DLRip
Формат видео: AVI
Видео: Xvid 720x304 24fps
Аудио: Dolby AC3 48000Hz stereo 128kbps-

MediaInfo

General
Complete name                  : E:\Films\K0r0leVa.5uSt1ny.2015.L2.WEB-DLRip.1400MB.avi
Format                         : AVI
Format/Info                    : Audio Video Interleave
File size                      : 1.37 GiB
Duration                       : 2h 8mn
Overall bit rate               : 1 525 Kbps
Writing application            : VirtualDubMod 1.5.10.3 | www.virtualdub-fr.org || (build 2550/release)
Writing library                : VirtualDubMod build 2550/release
Video
ID                             : 0
Format                         : MPEG-4 Visual
Format profile                 : Advanced [email protected]
Format settings, BVOP          : 2
Format settings, QPel          : No
Format settings, GMC           : No warppoints
Format settings, Matrix        : Default (MPEG)
Codec ID                       : XVID
Codec ID/Hint                  : XviD
Duration                       : 2h 8mn
Bit rate                       : 1 327 Kbps
Width                          : 720 pixels
Height                         : 304 pixels
Display aspect ratio           : 2.35:1
Frame rate                     : 24.000 fps
Color space                    : YUV
Chroma subsampling             : 4:2:0
Bit depth                      : 8 bits
Scan type                      : Progressive
Compression mode               : Lossy
Bits/(Pixel*Frame)             : 0.253
Stream size                    : 1.19 GiB (87%)
Writing library                : XviD 1.2.1 (UTC 2008-12-04)
Audio
ID                             : 1
Format                         : AC-3
Format/Info                    : Audio Coding 3
Mode extension                 : CM (complete main)
Format settings, Endianness    : Big
Codec ID                       : 2000
Duration                       : 2h 8mn
Bit rate mode                  : Constant
Bit rate                       : 128 Kbps
Channel(s)                     : 2 channels
Channel positions              : Front: L R
Sampling rate                  : 48.0 KHz
Bit depth                      : 16 bits
Compression mode               : Lossy
Stream size                    : 118 MiB (8%)
Alignment                      : Split accross interleaves

Скриншот c названием фильма

Скриншоты



Создавать темы 27-Янв-2016 16:12

[Профиль]  [ЛС] 
Показать сообщения:    
Ответить на тему

Текущее время: 23-Окт 16:47

Часовой пояс: UTC + 5



Вы не можете начинать темы
Вы не можете отвечать на сообщения
Вы не можете редактировать свои сообщения
Вы не можете удалять свои сообщения
Вы не можете голосовать в опросах
Вы не можете прикреплять файлы к сообщениям
Вы не можете скачивать файлы