Убийца / Sicario (Дени Вильнёв) [2015, США, боевик, триллер, драма, криминал, детектив, BDRip] [Чистый звук] (Dub : сборка 5.1 Wety) (Sub Rus + Original Eng)

Ответить на тему
 

ruwind ®

Стаж: 3 года 7 месяцев

Сообщений: 13

Симпатии: 16

- - Убийца / Sicario (2015/BDRip) 1080p / Чистый звук
Страна: США
Жанр: боевик, триллер, драма, криминал, детектив
Год выпуска: 2015
Продолжительность: 02:01:20

Перевод: Профессиональный (дублированный) Доп. инфо о переводе сборка 5.1 Wety
Cубтитры: русские
Оригинальная аудиодорожка: английский

Режиссер: Дени Вильнёв
В ролях: Эмили Блант, Бенисио Дель Торо, Джош Бролин, Джон Бернтал, Джеффри Донован, Виктор Гарбер, Рауль Трухильо, Максимилиано Эрнандес, Дэниэл Калуя, Сара Минник
Описание: На американо-мексиканской границе женщина-полицейский сопровождает двух рейнджеров, которые преследуют наркобарона. Она не подозревает, что по ту сторону границы есть тайное место, где не действуют никакие законы и царят насилие и разврат.


Качество видео: BDRip
Формат видео: MKV
Видео: 1920x800, 7870 Kbps, 23.976fps
Аудио: AC-3, 6 ch, 448 kbps (Rus) - Чистый звук (сборка 5.1 Wety)
Аудио 2: AC-3, 2 ch, 192 kbps (Rus) - Чистый звук (Испанская речь Есарев)
Аудио 3: AC-3, 6 ch, 640 kbps (Eng)
Формат субтитров: softsub (SRT)
Доп. информация о субтитрах: Матвеев

MediaInfo

Video #1
ID : 1
Format : AVC
Format/Info : Advanced Video Codec
Format profile : [email protected]
Format settings, CABAC : Yes
Format settings, ReFrames : 5 frames
Codec ID : V_MPEG4/ISO/AVC
Duration : 2h 1mn
Bit rate : 7 870 Kbps
Width : 1 920 pixels
Height : 800 pixels
Display aspect ratio : 2.40:1
Frame rate mode : Constant
Frame rate : 23.976 fps
Color space : YUV
Chroma subsampling : 4:2:0
Bit depth : 8 bits
Scan type : Progressive
Bits/(Pixel*Frame) : 0.214
Stream size : 6.52 GiB (84%)
Title : Sicario.2015.BDRip.1080p
Writing library : x264 core 148 r2638 7599210
Encoding settings : cabac=1 / ref=5 / deblock=1:-3:-3 / analyse=0x3:0x133 / me=umh / subme=10 / psy=1 / psy_rd=1.00:0.10 / mixed_ref=1 / me_range=32 / chroma_me=1 / trellis=2 / 8x8dct=1 / cqm=0 / deadzone=21,11 / fast_pskip=0 / chroma_qp_offset=-3 / threads=6 / lookahead_threads=1 / sliced_threads=0 / nr=0 / decimate=1 / interlaced=0 / bluray_compat=0 / constrained_intra=0 / bframes=8 / b_pyramid=2 / b_adapt=2 / b_bias=0 / direct=3 / weightb=1 / open_gop=0 / weightp=2 / keyint=240 / keyint_min=23 / scenecut=40 / intra_refresh=0 / rc=2pass / mbtree=0 / bitrate=7870 / ratetol=1.0 / qcomp=0.60 / qpmin=0 / qpmax=69 / qpstep=4 / cplxblur=20.0 / qblur=0.5 / ip_ratio=1.40 / pb_ratio=1.30 / aq=2:0.90
Language : English
Default : No
Forced : No
Audio #2
ID : 2
Format : AC-3
Format/Info : Audio Coding 3
Mode extension : CM (complete main)
Format settings, Endianness : Big
Codec ID : A_AC3
Duration : 2h 1mn
Bit rate mode : Constant
Bit rate : 448 Kbps
Channel count : 6 channels
Channel positions : Front: L C R, Side: L R, LFE
Sampling rate : 48.0 KHz
Bit depth : 16 bits
Compression mode : Lossy
Stream size : 389 MiB (5%)
Title : DUB 5.1 by Wety
Language : Russian
Default : Yes
Forced : Yes
Audio #3
ID : 3
Format : AC-3
Format/Info : Audio Coding 3
Mode extension : CM (complete main)
Format settings, Endianness : Big
Codec ID : A_AC3
Duration : 2h 1mn
Bit rate mode : Constant
Bit rate : 192 Kbps
Channel count : 2 channels
Channel positions : Front: L R
Sampling rate : 48.0 KHz
Bit depth : 16 bits
Compression mode : Lossy
Stream size : 167 MiB (2%)
Title : DUB + Есарев
Language : Russian
Default : No
Forced : No
Audio #4
ID : 4
Format : AC-3
Format/Info : Audio Coding 3
Mode extension : CM (complete main)
Format settings, Endianness : Big
Codec ID : A_AC3
Duration : 2h 1mn
Bit rate mode : Constant
Bit rate : 640 Kbps
Channel count : 6 channels
Channel positions : Front: L C R, Side: L R, LFE
Sampling rate : 48.0 KHz
Bit depth : 16 bits
Compression mode : Lossy
Stream size : 555 MiB (7%)
Language : English
Default : No
Forced : No
Text #5
ID : 5
Format : UTF-8
Codec ID : S_TEXT/UTF8
Codec ID/Info : UTF-8 Plain Text
Title : Forced (Матвеев)
Language : Russian
Default : Yes
Forced : Yes
Text #6
ID : 6
Format : UTF-8
Codec ID : S_TEXT/UTF8
Codec ID/Info : UTF-8 Plain Text
Title : Full (Матвеев)
Language : Russian
Default : No
Forced : No
Text #7
ID : 7
Format : UTF-8
Codec ID : S_TEXT/UTF8
Codec ID/Info : UTF-8 Plain Text
Language : English
Default : No
Forced : No

Скриншот c названием фильма

Скриншоты





Последний раз редактировалось: ruwind (2016-01-28 23:05), всего редактировалось 1 раз

Создавать темы 27-Янв-2016 23:07

[Профиль]  [ЛС] 

Топик был перенесен из форума Фильмы за 2015 в форум Зарубежное кино
kat222000

Создавать темы 28-Янв-2016 06:51

 

ruwind ®

Стаж: 3 года 7 месяцев

Сообщений: 13

Симпатии: 16

Спасибо Всем что скачали а выложить каждый может....

Создавать темы 03-Фев-2016 18:21

[Профиль]  [ЛС] 

Mirhodi

Стаж: 5 лет 2 месяца

Сообщений: 23

Симпатии: 2

  • Мочний фильм
  • Создавать темы 04-Фев-2016 18:06

    [Профиль]  [ЛС] 

    Theofrast

    Стаж: 6 лет 6 месяцев

    Сообщений: 33

    Симпатии: 30

    Реально страшный фильм.
    В Мексику - ни ногой!

    Создавать темы 11-Фев-2016 20:33

    [Профиль]  [ЛС] 
    Показать сообщения:    
    Ответить на тему

    Текущее время: 18-Авг 13:55

    Часовой пояс: UTC + 5



    Вы не можете начинать темы
    Вы не можете отвечать на сообщения
    Вы не можете редактировать свои сообщения
    Вы не можете удалять свои сообщения
    Вы не можете голосовать в опросах
    Вы не можете прикреплять файлы к сообщениям
    Вы не можете скачивать файлы