Легенда о Нарайяме / Narayama bushiko (Сёхэй Имамура) [1983, Япония, драма, BDRip] VO

Ответить на тему
 

lotto ®

Стаж: 7 лет 7 месяцев

Сообщений: 221

Симпатии: 409

Легенда о Нарайяме / Narayama bushiko-- Страна: Япония
Жанр: драма
Год выпуска: 1983
Продолжительность: 02:10:04
Перевод: Авторский (одноголосый закадровый)
Cубтитры: нет--Режиссер: Сёхэй Имамура
В ролях: Кен Огата, Сумико Сакамото, Такейо Аки, Тонпеи Хидари, Шоичи Озава, Сейджи Курасаки, Каору Шимамори, Риютаро Татсуми, Джанко Такада, Ниджико Кийокава--Описание: Действие происходит в XIX столетии в японской деревушке, пораженной голодом. Чтобы не умирать голодной смертью, жители ввели ритуал умерщвления бесполезных членов сообщества: новорожденных мальчиков просто убивали, а пожилых людей их собственные дети относили на вершину горы Нараяма и оставляли умирать. Орин — женщина 69 лет должна умереть. Ее сын не хочет выполнить ритуал, но того требует мать, верная традиции. Найдя жен своим детям, она начинает последний подъем на вершину, привязанной к спине сына.-- --Качество видео: BDRip
Формат видео: AVI
Видео: XviD, 720x384, 23.976 fps, 2194 kbps
Аудио: AC3, 48 kHz, 2 ch, 192 kbps (русский, одноголосый)

MediaInfo

General
Complete name : Narayama.bushiko.1983.bdrip_[2.18]_[teko].avi
Format : AVI
Format/Info : Audio Video Interleave
Format profile : OpenDML
File size : 2.18 GiB
Duration : 2h 10mn
Overall bit rate : 2 398 Kbps
Writing application : VirtualDubMod 1.5.10.3 | www.virtualdub-fr.org || (build 2550/release)
Writing library : VirtualDubMod build 2550/release
Video
ID : 0
Format : MPEG-4 Visual
Format profile : Advanced [email protected]
Format settings, BVOP : 2
Format settings, QPel : No
Format settings, GMC : No warppoints
Format settings, Matrix : Custom
Codec ID : XVID
Codec ID/Hint : XviD
Duration : 2h 10mn
Bit rate : 2 194 Kbps
Width : 720 pixels
Height : 384 pixels
Display aspect ratio : 1.85:1
Frame rate : 23.976 (23976/1000) fps
Color space : YUV
Chroma subsampling : 4:2:0
Bit depth : 8 bits
Scan type : Progressive
Compression mode : Lossy
Bits/(Pixel*Frame) : 0.331
Stream size : 1.99 GiB (91%)
Writing library : XviD 65
Audio
ID : 1
Format : AC-3
Format/Info : Audio Coding 3
Mode extension : CM (complete main)
Format settings, Endianness : Big
Codec ID : 2000
Duration : 2h 10mn
Bit rate mode : Constant
Bit rate : 192 Kbps
Channel(s) : 2 channels
Channel positions : Front: L R
Sampling rate : 48.0 KHz
Frame rate : 31.250 fps (1536 spf)
Compression mode : Lossy
Stream size : 179 MiB (8%)
Alignment : Split accross interleaves
Interleave, duration : 42 ms (1.00 video frame)
Interleave, preload duratio : 500 ms

Скриншот c названием фильма

Скриншоты







Последний раз редактировалось: lotto (2016-01-30 18:24), всего редактировалось 1 раз

Создавать темы 30-Янв-2016 16:26

[Профиль]  [ЛС] 

kat222000

Стаж: 6 лет 4 месяца

Сообщений: 608

Симпатии: 1055

Описание жесть:
умерщвления бесполезных членов сообщества: новорожденных мальчиков просто убивали, а пожилых людей их собственные дети относили на вершину горы Нараяма и оставляли умирать.

Создавать темы 30-Янв-2016 18:38

[Профиль]  [ЛС] 

lotto ®

Стаж: 7 лет 7 месяцев

Сообщений: 221

Симпатии: 409

966194Описание жесть:
умерщвления бесполезных членов сообщества: новорожденных мальчиков просто убивали, а пожилых людей их собственные дети относили на вершину горы Нараяма и оставляли умирать.
Это был естественный способ существования в системе координат на тот момент.
Сейчас опять начались споры по поводу Ленина и места его в истории. На самом деле Ленин перевел систему координат сущестования человека в мире с "идеализма" на "материализм"...

Создавать темы 31-Янв-2016 15:03

[Профиль]  [ЛС] 
Показать сообщения:    
Ответить на тему

Текущее время: 21-Авг 07:55

Часовой пояс: UTC + 5



Вы не можете начинать темы
Вы не можете отвечать на сообщения
Вы не можете редактировать свои сообщения
Вы не можете удалять свои сообщения
Вы не можете голосовать в опросах
Вы не можете прикреплять файлы к сообщениям
Вы не можете скачивать файлы