[Специалист] Специалист | Подготовка и защита бизнес - плана [2011] PCRec [2011, RUS]

Ответить на тему
 

pirat ®

Стаж: 5 лет 5 месяцев

Сообщений: 216

Симпатии: 63

Специалист | Подготовка и защита бизнес - плана [2011] PCRec
--Автор (режиссер):Специалист
Название: Подготовка и защита бизнес - плана
Год выпуска: 2011
Жанр: Предпринимательство
Качество видео: PCRec
Продолжительность: 15:48:17
Видеокодек: G2M3
Битрейт видео: ~199 Kbps
Размер кадра: 1280x1024
Аудиокодек: WMA
Битрейт аудио: 48 Kbps; CBR; 1 ch; 16 bit--Описание:
Что такое бизнес-план? Кому он необходим? Из чего состоит? Какие бизнес-планы существуют на практике? На эти и другие вопросы Вы получите ответы на данном курсе. Термин «бизнес-план» не должен вызывать страха, он лишь призывает в очередной раз cмоделировать цели и пути их достижения, возможные угрозы и риски, ожидаемые финансовые результаты бизнеса. На занятиях Вы получите навыки разработки бизнес-плана, формулировки бизнес-идеи в письменном виде. Изучите алгоритм создания типового бизнес-плана. Получите знания по расчету рисков. Овладеете навыками защиты и презентации бизнес-проекта. Дополнительно Вы получите типовые варианты бизнес-планов по нескольким направлениям! В итоге Вы сможете составить и защитить свой бизнес-план.
Курс будет полезен как для начинающих свое дело, так и для опытных владельцев бизнеса. А также для руководителей, открывающих новое направление или планирующих привлечь заемные средства под свои проекты.

Mediainfo

General
Complete name : E:\Torrent\Qtorrent\Подготовка и защита бизнес - плана\2011-03-21 18.23 BPLAN 21_03_30_03 STILOB v.wmv
Format : Windows Media
File size : 298 MiB
Duration : 3h 26mn
Overall bit rate mode : Variable
Overall bit rate : 201 Kbps
Maximum Overall bit rate : 27.9 Mbps
Encoded date : UTC 2012-06-28 02:12:44.828
Video
ID : 3
Format : GoToMeeting3
Codec ID : G2M3
Codec ID/Info : Citrix Systems, Inc.
Duration : 3h 26mn
Bit rate mode : Variable
Bit rate : 27.6 Mbps
Width : 1 280 pixels
Height : 1 024 pixels
Display aspect ratio : 5:4
Frame rate : 29.970 fps
Bit depth : 8 bits
Bits/(Pixel*Frame) : 0.704
Stream size : 40.0 GiB
Audio
ID : 1
Format : WMA
Format version : Version 2
Codec ID : 161
Codec ID/Info : Windows Media Audio
Duration : 3h 26mn
Bit rate mode : Constant
Bit rate : 48.0 Kbps
Channel(s) : 1 channel
Sampling rate : 44.1 KHz
Bit depth : 16 bits
Stream size : 71.1 MiB (24%)
--

Создавать темы 31-Янв-2016 00:51

[Профиль]  [ЛС] 

zoomin

Стаж: 5 лет 7 месяцев

Сообщений: 11

pirat, Может дашь скачать? У меня чего-то не качается.

Создавать темы 26-Сен-2016 23:51

[Профиль]  [ЛС] 
Показать сообщения:    
Ответить на тему

Текущее время: 23-Сен 01:41

Часовой пояс: UTC + 5



Вы не можете начинать темы
Вы не можете отвечать на сообщения
Вы не можете редактировать свои сообщения
Вы не можете удалять свои сообщения
Вы не можете голосовать в опросах
Вы не можете прикреплять файлы к сообщениям
Вы не можете скачивать файлы