Идеальный парень / The Perfect Guy (Дэвид М. Розенталь) [2015, США, Драма, Триллер, BDRip] [iTunes]

Ответить на тему
 

ruhal ®

Стаж: 2 года 5 месяцев

Сообщений: 1181

Симпатии: 1836

- - -Идеальный парень / The Perfect Guy-
Страна: США
Жанр: Драма, Триллер
Год выпуска: 2015
Продолжительность: 01:39:53-Перевод: Профессиональный (многоголосый закадровый) [iTunes]
Cубтитры: нет-Режиссер: Дэвид М. Розенталь-В ролях: Кэтрин Моррис, Л. Скотт Колдуэлл, Майкл Или, Моррис Честнат, Рутина Уэсли,
Санаа Лэтэн, Тесс Харпер, Холт МакКэллани, Чарльз С. Даттон, Джон Гец-Описание: Казалось бы, у Ли Вон идеальная жизнь: хорошая работа и любящий парень.
В свои 36 она готова сделать решающий шаг — создать семью. Но Дэйв, ее молодой человек, так не считает,
он все еще боится обязательств. Это, в конечном счете, приводит их пару к разрыву.
В то же время Ли встречает обаятельного незнакомца Картера. Он заботится о ее семье и друзьях,
поэтому отношения молодых людей развиваются стремительно.
Однако, его гипер опека со временем становится слишком навязчивой, даже зловещей.
Когда Ли разрывает отношения, ее бывший любовник становится врагом.
Ей приходится придумать хитрый план, чтобы окончательно избавиться от него.-Качество видео: BDRip
Формат видео: AVI
Видео: Xvid 720x304 23.976fps 1634kbps
Аудио: Dolby AC3 48000Hz 6ch 384kbps
-

MediaInfo

General
Complete name : E:\Films\Idealnyj.paren.2015.P.BDRip.avi
Format : AVI
Format/Info : Audio Video Interleave
File size : 1.41 GiB
Duration : 1h 39mn
Overall bit rate : 2 028 Kbps
Movie name : Idealnyj.paren.2015.P.BDRip.1.46Gb_MegaPeer_by_Twi7ter
Director : Twi7ter
Genre : Thriller/Drama
Writing application : VirtualDubMod 1.5.10.3 (build 2550/release)
Writing library : VirtualDubMod build 2550/release
Original source form/Name : Movie
Video
ID : 0
Format : MPEG-4 Visual
Format profile : Advanced [email protected]
Format settings, BVOP : 2
Format settings, QPel : No
Format settings, GMC : No warppoints
Format settings, Matrix : Custom
Codec ID : XVID
Codec ID/Hint : XviD
Duration : 1h 39mn
Bit rate : 1 634 Kbps
Width : 720 pixels
Height : 304 pixels
Display aspect ratio : 2.35:1
Frame rate : 23.976 fps
Color space : YUV
Chroma subsampling : 4:2:0
Bit depth : 8 bits
Scan type : Progressive
Compression mode : Lossy
Bits/(Pixel*Frame) : 0.311
Stream size : 1.14 GiB (81%)
Writing library : XviD 73
Audio
ID : 1
Format : AC-3
Format/Info : Audio Coding 3
Mode extension : CM (complete main)
Format settings, Endianness : Big
Codec ID : 2000
Duration : 1h 39mn
Bit rate mode : Constant
Bit rate : 384 Kbps
Channel(s) : 6 channels
Channel positions : Front: L C R, Side: L R, LFE
Sampling rate : 48.0 KHz
Bit depth : 16 bits
Compression mode : Lossy
Delay relative to video : 960ms
Stream size : 274 MiB (19%)
Alignment : Split accross interleaves
Interleave, duration : 42 ms (1.00 video frame)
Interleave, preload duration : 500 ms

Скриншот c названием фильма

Скриншоты



Создавать темы 31-Янв-2016 12:55

[Профиль]  [ЛС] 
Показать сообщения:    
Ответить на тему

Текущее время: 24-Сен 17:23

Часовой пояс: UTC + 5



Вы не можете начинать темы
Вы не можете отвечать на сообщения
Вы не можете редактировать свои сообщения
Вы не можете удалять свои сообщения
Вы не можете голосовать в опросах
Вы не можете прикреплять файлы к сообщениям
Вы не можете скачивать файлы