Машкины страшилки (сериал) / Машкины страшилки (сериал) (Олег Кузовков, Денис Червяцов, Ринат Газизов) [2014-2016 (1 сезон серии 6-9 из?) г., мультфильм, детский, комедия, WEB-DLRip]

Ответить на тему
 

igor1968 ®

Стаж: 5 лет 6 месяцев

Сообщений: 366

Симпатии: 197

Машкины страшилки (сериал) / Машкины страшилки (сериал)- (1 сезон серии 6-9 из?) Год выпуска: 2014-2016
(1 сезон)
Страна: Россия
Жанр: мультфильм, детский, комедия
Продолжительность: 00:05:40
Перевод: Не требуется-Режиссер: Олег Кузовков, Денис Червяцов, Ринат Газизов-Описание: Маша решила взяться за новый жанр - теперь она рассказывает страшилки! В своей неповторимой детской манере она раскрывает маленьким зрителям главный секрет: все страшилки живут лишь в нашем воображении. Играя и рассказывая пугающие истории, Маша учит малышей ничего не бояться. Она объясняет, откуда именно берутся самые распространённые детские страхи и как с ними бороться.-

Список серий

06. Мрачная притча о суеверной девочке
07. Угрюмый завет о сопливом мальчике
08. Очень мрачное сказание о девочке, которая боялась зверушек
09. Ужасающая история про бабушку и внучка
-Качество: WEB-DLRip
Формат: AVI
Видео: XviD, 720x400, ~2093 kbps, 25 fps
Аудио: MP3, 44 kHz, 192 kbps, 2 ch-

MediaInfo

General
Complete name : 06. Мрачная притча о суеверной девочке.avi
Format : AVI
Format/Info : Audio Video Interleave
File size : 93.2 MiB
Duration : 5mn 40s
Overall bit rate : 2 298 Kbps
Writing application : MEncoder SVN-r30881(20100311-gcc4.3.3)
Writing library : MPlayer
Video
ID : 0
Format : MPEG-4 Visual
Format profile : Advanced [email protected]
Format settings, BVOP : 2
Format settings, QPel : No
Format settings, GMC : No warppoints
Format settings, Matrix : Default (H.263)
Codec ID : XVID
Codec ID/Hint : XviD
Duration : 5mn 40s
Bit rate : 2 094 Kbps
Width : 720 pixels
Height : 400 pixels
Display aspect ratio : 16:9
Original display aspect ratio : 16:9
Frame rate : 25.000 fps
Color space : YUV
Chroma subsampling : 4:2:0
Bit depth : 8 bits
Scan type : Progressive
Compression mode : Lossy
Bits/(Pixel*Frame) : 0.291
Stream size : 84.9 MiB (91%)
Writing library : XviD 1.2.1 (UTC 2008-12-04)
Audio
ID : 1
Format : MPEG Audio
Format version : Version 1
Format profile : Layer 3
Mode : Joint stereo
Mode extension : MS Stereo
Codec ID : 55
Codec ID/Hint : MP3
Duration : 5mn 40s
Bit rate mode : Constant
Bit rate : 192 Kbps
Channel(s) : 2 channels
Sampling rate : 44.1 KHz
Compression mode : Lossy
Delay relative to video : 40ms
Stream size : 7.78 MiB (8%)
Alignment : Aligned on interleaves
Interleave, duration : 26 ms (0.65 video frame)
Interleave, preload duration : 522 ms
Writing library : LAME3.98
-

Создавать темы 01-Фев-2016 03:03

[Профиль]  [ЛС] 

igor1968 ®

Стаж: 5 лет 6 месяцев

Сообщений: 366

Симпатии: 197

Галерея работает, архив старых картинок будит загружен ближайшее время!

Создавать темы 01-Фев-2016 03:08

[Профиль]  [ЛС] 
Показать сообщения:    
Ответить на тему

Текущее время: 23-Сен 09:02

Часовой пояс: UTC + 5



Вы не можете начинать темы
Вы не можете отвечать на сообщения
Вы не можете редактировать свои сообщения
Вы не можете удалять свои сообщения
Вы не можете голосовать в опросах
Вы не можете прикреплять файлы к сообщениям
Вы не можете скачивать файлы