Сотня / The 100 / Сезон: 3 / Серии: 1-16 из 16 (Дин Уайт, Джон Беринг, Милан Чейлов) [2016, Фантастика, драма, детектив, боевик, WEB-DLRip] (MVO+AlexFilm) (Original)

Страницы :  1, 2  След.

Ответить на тему
 

Mamutov ®

Стаж: 4 года 10 месяцев

Сообщений: 255

Симпатии: 144

---Сотня / The 100
--- Год выпуска: 2016
Страна: США
Жанр: Фантастика, драма, детектив, боевик
Продолжительность: 00:42:00-Перевод: Профессиональный (многоголосый закадровый)AlexFilm
Русские субтитры: нет
Режиссёр: Дин Уайт, Джон Беринг, Милан Чейлов-В ролях: Элиза Тейлор-Коттер, Мари Авгеропулос, Сачин Сахель, Линдси Морган, Женевьев Бюкнер, Ричард Хэрмон и др.-Описание: События в сериале начинают разворачиваться по прошествии девяносто семи лет после того как всю цивилизацию уничтожила страшная атомная война.
Высоко в космосе на орбите Земли летает большой космический корабль, именно здесь находятся те, кто выжил после страшной катастрофы. Они единственные кто пережил этот ужасный катаклизм который устроило человечество. Именно с этого последнего пристанища людей на Землю отправляют космический челнок на котором находятся сто малолетних преступников…
-Качество: WEB-DLRip
Формат: AVI
Видео кодек: XviD
Аудио кодек: AC3
Видео: XVID, 720x400 (16:9), 23.976 fps, 2000 kbps avg, 0.29 bit/pixel
Аудио: Rus: AC3 Dolby Digital, 48.0 KHz, 6 channels, 384 kbps avg
Аудио: Eng: AC3 Dolby Digital, 48.0 KHz, 6 channels, 384 kbps avg
---

MediaInfo

General
Complete name : E:\Сотня (Сезон 3) AlexFilm\The.100.s03e01.rus.eng.Celta88.avi
Format : AVI
Format/Info : Audio Video Interleave
File size : 847 MiB
Duration : 42mn 28s
Overall bit rate : 2 788 Kbps
Writing application : VirtualDubMod 1.5.10.2 (build 2540/release)
Writing library : VirtualDubMod build 2540/release
Video
ID : 0
Format : MPEG-4 Visual
Format profile : Advanced [email protected]
Format settings, BVOP : 1
Format settings, QPel : No
Format settings, GMC : No warppoints
Format settings, Matrix : Default (MPEG)
Codec ID : XVID
Codec ID/Hint : XviD
Duration : 42mn 28s
Bit rate : 2 006 Kbps
Width : 720 pixels
Height : 400 pixels
Display aspect ratio : 16:9
Frame rate : 23.976 fps
Color space : YUV
Chroma subsampling : 4:2:0
Bit depth : 8 bits
Scan type : Progressive
Compression mode : Lossy
Bits/(Pixel*Frame) : 0.291
Stream size : 609 MiB (72%)
Writing library : XviD 1.2.1 (UTC 2008-12-04)
Audio #1
ID : 1
Format : AC-3
Format/Info : Audio Coding 3
Mode extension : CM (complete main)
Format settings, Endianness : Big
Codec ID : 2000
Duration : 42mn 28s
Bit rate mode : Constant
Bit rate : 384 Kbps
Channel count : 6 channels
Channel positions : Front: L C R, Side: L R, LFE
Sampling rate : 48.0 KHz
Bit depth : 16 bits
Compression mode : Lossy
Stream size : 117 MiB (14%)
Alignment : Split accross interleaves
Interleave, duration : 42 ms (1.00 video frame)
Interleave, preload duration : 500 ms
Audio #2
ID : 2
Format : AC-3
Format/Info : Audio Coding 3
Mode extension : CM (complete main)
Format settings, Endianness : Big
Codec ID : 2000
Duration : 42mn 28s
Bit rate mode : Constant
Bit rate : 384 Kbps
Channel count : 6 channels
Channel positions : Front: L C R, Side: L R, LFE
Sampling rate : 48.0 KHz
Bit depth : 16 bits
Compression mode : Lossy
Stream size : 117 MiB (14%)
Alignment : Split accross interleaves
Interleave, duration : 42 ms (1.00 video frame)
Interleave, preload duration : 500 ms

Скриншоты





Последний раз редактировалось: Mamutov (2016-06-21 12:40), всего редактировалось 18 раз(а)

Создавать темы 01-Фев-2016 21:22

[Профиль]  [ЛС] 

Gannibal

Стаж: 6 лет 11 месяцев

Сообщений: 103

Симпатии: 18

Спасибо большое Автору за оригинальную дорожку!
Ну и за сериал конечно =Р

Создавать темы 03-Фев-2016 20:05

[Профиль]  [ЛС] 

Mamutov ®

Стаж: 4 года 10 месяцев

Сообщений: 255

Симпатии: 144

3 серия

Создавать темы 07-Фев-2016 17:06

[Профиль]  [ЛС] 

Mamutov ®

Стаж: 4 года 10 месяцев

Сообщений: 255

Симпатии: 144

4 серия

Создавать темы 15-Фев-2016 09:16

[Профиль]  [ЛС] 

Mamutov ®

Стаж: 4 года 10 месяцев

Сообщений: 255

Симпатии: 144

5 серия

Создавать темы 22-Фев-2016 18:58

[Профиль]  [ЛС] 

Mamutov ®

Стаж: 4 года 10 месяцев

Сообщений: 255

Симпатии: 144

6 серия

Создавать темы 02-Мар-2016 23:46

[Профиль]  [ЛС] 

anvarsabina

Стаж: 5 лет 1 месяц

Сообщений: 30

Симпатии: 2

я знаю что это противоречит правилам сайта! но пожалуйста встаньте на раздачу! я 2 недели качаю! ни одной серии до конца не скачал!

Создавать темы 05-Мар-2016 02:55

[Профиль]  [ЛС] 

Mamutov ®

Стаж: 4 года 10 месяцев

Сообщений: 255

Симпатии: 144

7 серия

Создавать темы 08-Мар-2016 20:09

[Профиль]  [ЛС] 

Mamutov ®

Стаж: 4 года 10 месяцев

Сообщений: 255

Симпатии: 144

8 серия

Создавать темы 14-Мар-2016 10:42

[Профиль]  [ЛС] 

Mamutov ®

Стаж: 4 года 10 месяцев

Сообщений: 255

Симпатии: 144

9 серия

Создавать темы 02-Апр-2016 08:55

[Профиль]  [ЛС] 

Mamutov ®

Стаж: 4 года 10 месяцев

Сообщений: 255

Симпатии: 144

10 серия

Создавать темы 10-Апр-2016 19:14

[Профиль]  [ЛС] 

Mamutov ®

Стаж: 4 года 10 месяцев

Сообщений: 255

Симпатии: 144

11 серия

Создавать темы 19-Апр-2016 07:25

[Профиль]  [ЛС] 

Mamutov ®

Стаж: 4 года 10 месяцев

Сообщений: 255

Симпатии: 144

12 серия

Создавать темы 01-Май-2016 23:10

[Профиль]  [ЛС] 

Mamutov ®

Стаж: 4 года 10 месяцев

Сообщений: 255

Симпатии: 144

13-14 серии

Создавать темы 14-Май-2016 08:37

[Профиль]  [ЛС] 

Mamutov ®

Стаж: 4 года 10 месяцев

Сообщений: 255

Симпатии: 144

15 серия

Создавать темы 22-Май-2016 23:20

[Профиль]  [ЛС] 
Показать сообщения:    
Ответить на тему

Текущее время: 19-Ноя 04:25

Часовой пояс: UTC + 5



Вы не можете начинать темы
Вы не можете отвечать на сообщения
Вы не можете редактировать свои сообщения
Вы не можете удалять свои сообщения
Вы не можете голосовать в опросах
Вы не можете прикреплять файлы к сообщениям
Вы не можете скачивать файлы