Взлом / Home Invasion (Дэвид Теннант) [2016, США, триллер, WEB-DLRip] (MVO : [iTunes])

Ответить на тему
 

Бахтиер123 ®

Стаж: 5 лет 8 месяцев

Сообщений: 72

Симпатии: 18

Взлом / Home Invasion
Страна: США
Жанр: триллер
Год выпуска: 2016
Продолжительность: 01:28:31
Перевод: Профессиональное (многоголосое) [iTunes]
Cубтитры: нет
Режиссер: Дэвид Теннант
В ролях: Наташа Хенстридж, Джейсон Патрик, Скотт Эдкинс, Лиам Дикинсон, Майкл Роджерс, Кристиан Тессьер, Бренда Кричлоу
Описание: Ужас приходит к персонажам этого психологического триллера в месте, которое они считали самым безопасным. В своем загородном доме, состоятельная дама со своим приемным сыном становятся жертвой нападения трех изощренных и беспощадных воров. Единственная их надежда на спасение - это оператор службы домашней сигнализации на другом конце телефона. Сможет ли он стать глазами пленников собственного дома и помочь им выбраться из кошмара наяву?
Качество видео: WEB-DLRip
Формат видео: AVI
Видео: Xvid, 720x400 , 23.976 fps, ~1814 Kbps
Аудио: C3, 48000Hz, 6ch, ~384 Kbps

MediaInfo

General
Complete name : D:\Ooops\B3L0M.2016.P.WEB-DLRip.avi
Format : AVI
Format/Info : Audio Video Interleave
File size : 1.37 GiB
Duration : 1h 28mn
Overall bit rate : 2 208 Kbps
Writing application : VirtualDubMod 1.5.10.3 | www.virtualdub-fr.org || (build 2550/release)
Writing library : VirtualDubMod build 2550/release
Video
ID : 0
Format : MPEG-4 Visual
Format profile : Advanced [email protected]
Format settings, BVOP : 2
Format settings, QPel : No
Format settings, GMC : No warppoints
Format settings, Matrix : Default (MPEG)
Codec ID : XVID
Codec ID/Hint : XviD
Duration : 1h 28mn
Bit rate : 1 814 Kbps
Width : 720 pixels
Height : 400 pixels
Display aspect ratio : 16:9
Frame rate : 23.976 fps
Color space : YUV
Chroma subsampling : 4:2:0
Bit depth : 8 bits
Scan type : Progressive
Compression mode : Lossy
Bits/(Pixel*Frame) : 0.263
Stream size : 1.12 GiB (82%)
Writing library : XviD 1.2.1 (UTC 2008-12-04)
Audio
ID : 1
Format : AC-3
Format/Info : Audio Coding 3
Mode extension : CM (complete main)
Format settings, Endianness : Big
Codec ID : 2000
Duration : 1h 28mn
Bit rate mode : Constant
Bit rate : 384 Kbps
Channel(s) : 6 channels
Channel positions : Front: L C R, Side: L R, LFE
Sampling rate : 48.0 KHz
Bit depth : 16 bits
Compression mode : Lossy
Stream size : 243 MiB (17%)
Alignment : Split accross interleaves
Interleave, duration : 42 ms (1.00 video frame)
Interleave, preload duration : 500 ms

Скриншоты



Создавать темы 02-Фев-2016 06:28

[Профиль]  [ЛС] 

Shmidt

Стаж: 4 года 7 месяцев

Сообщений: 20

Симпатии: 8

73 человека скачали и никто не поделился своим мнением по поводу кина)))

Создавать темы 03-Фев-2016 11:16

[Профиль]  [ЛС] 

Star Line

Стаж: 3 года 11 месяцев

Сообщений: 136

Симпатии: 26

Shmidt, Хотят по больше раздачи накрутить

Создавать темы 03-Фев-2016 13:56

[Профиль]  [ЛС] 

Shmidt

Стаж: 4 года 7 месяцев

Сообщений: 20

Симпатии: 8

Я бы посмотрел только из-за Скотт Эдкинс, но думаю в этом фильме не будет экшена)))

Создавать темы 03-Фев-2016 14:19

[Профиль]  [ЛС] 

Star Line

Стаж: 3 года 11 месяцев

Сообщений: 136

Симпатии: 26

Shmidt, Мне лично понравился фильм. А остальное, дело вкуса. Но уж точно не ТВ3

Создавать темы 04-Фев-2016 15:50

[Профиль]  [ЛС] 

viktoria

Стаж: 2 года 3 месяца

Сообщений: 9

Симпатии: 4

ща посмотрю поделюсь))

Создавать темы 09-Фев-2016 20:36

[Профиль]  [ЛС] 

vulkan

Стаж: 5 лет

Сообщений: 11

Симпатии: 5

фильм хххххерня почему 2 актёра класного смешали га-ном?

Создавать темы 15-Фев-2016 23:09

[Профиль]  [ЛС] 

Alex Dancer

Стаж: 5 лет 8 месяцев

Сообщений: 181

Симпатии: 21

96647273 человека скачали и никто не поделился своим мнением по поводу кина)))
Ну что ж... я поделюсь.
Посмотрел я щас этот фильмец, и, честно говоря, сильно разочарован. Зря потраченные полтора часа моей жизни.
Сюжет в принципе повторяет уже сотню раз снятую и переснятую тему ограбления дома. Что же касается темы сторонней помощи от оператора службы поддержки (в данном случае это оператор охранного агентства, которое видимо и выступило в качестве главного спонсора картины), то эта тема гораздо лучше была снята в 2014 году в триллере Тревожный вызов (The Call), с Холли Берри в главной роли. Вот уж где режиссёр разгулялся в плане саспенса. А в этом фильме три горе-преступника, пытающиеся казаться крутыми профи, не могут поймать испуганную женщину с не шибко храбрым пацаном.
В общем, если вам хочется триллера, лучше посмотрите или пересмотрите "Вызов". А если хочется новинки, вам нечем больше заняться и совсем не жалко времени, то можно и посмотреть.
В любом случае, картина на "один раз посмотреть". Благо что без перемотки.

Создавать темы 18-Фев-2016 23:33

[Профиль]  [ЛС] 
Показать сообщения:    
Ответить на тему

Текущее время: 20-Сен 07:13

Часовой пояс: UTC + 5



Вы не можете начинать темы
Вы не можете отвечать на сообщения
Вы не можете редактировать свои сообщения
Вы не можете удалять свои сообщения
Вы не можете голосовать в опросах
Вы не можете прикреплять файлы к сообщениям
Вы не можете скачивать файлы