Рейс 7500 / 7500 (Такаси Симидзу) [2014, Япония, США, ужасы, фантастика, триллер, HDRip] (Dub) (Original Eng)

Ответить на тему
 

Бахтиер123 ®

Стаж: 5 лет 11 месяцев

Сообщений: 72

Симпатии: 18

Рейс 7500 / 7500
Страна: Япония, США / CBS Films, Ozla Pictures, Ozla Productions
Жанр: ужасы, фантастика, триллер
Год выпуска: 2014
Продолжительность: 01:19:49
Перевод: Профессиональное (многоголосое) [Официальный звук]
Cубтитры: нет
Оригинальная аудиодорожка: английский
Режиссер: Такаси Симидзу
В ролях: Райан Квантен, Эми Смарт, Лесли Бибб, Джейми Чунг, Скаут Тейлор-Комптон, Никки Уилан, Джерри Феррара, Кристиан Серратос, Алекс Фрост, Рик Келли
Описание: Пассажиры рейса 7500 летят через Тихий океан. Время перелета составит 8 часов. Но монотонность путешествия мгновенно забывается, когда в салоне от удушья умирает мужчина, а затем из самолета один за одним начинают пропадать люди...
Качество видео: HDRip
Формат видео: AVI
Видео: XviD, 2008 kb/s, 720x384
Аудио: AC3, 192 kb/s (2 ch) RUS
Аудио 2: AC3, 256 kb/s (2 ch) ENG

MediaInfo

General
Complete name : D:\Ooops\Rejs.75OO.2015.P.HDRip.avi
Format : AVI
Format/Info : Audio Video Interleave
File size : 1.38 GiB
Duration : 1h 19mn
Overall bit rate : 2 471 Kbps
Writing application : VirtualDubMod 1.5.10.2 (build 2540/release)
Writing library : VirtualDubMod build 2540/release
Video
ID : 0
Format : MPEG-4 Visual
Format profile : Advanced [email protected]
Format settings, BVOP : 2
Format settings, QPel : No
Format settings, GMC : No warppoints
Format settings, Matrix : Default (MPEG)
Codec ID : XVID
Codec ID/Hint : XviD
Duration : 1h 19mn
Bit rate : 2 009 Kbps
Width : 720 pixels
Height : 384 pixels
Display aspect ratio : 1.85:1
Frame rate : 23.976 fps
Color space : YUV
Chroma subsampling : 4:2:0
Bit depth : 8 bits
Scan type : Progressive
Compression mode : Lossy
Bits/(Pixel*Frame) : 0.303
Stream size : 1.12 GiB (81%)
Writing library : XviD 1.2.1 (UTC 2008-12-04)
Audio #1
ID : 1
Format : AC-3
Format/Info : Audio Coding 3
Mode extension : CM (complete main)
Format settings, Endianness : Big
Codec ID : 2000
Duration : 1h 19mn
Bit rate mode : Constant
Bit rate : 192 Kbps
Channel(s) : 2 channels
Channel positions : Front: L R
Sampling rate : 48.0 KHz
Bit depth : 16 bits
Compression mode : Lossy
Stream size : 110 MiB (8%)
Alignment : Split accross interleaves
Interleave, duration : 42 ms (1.00 video frame)
Interleave, preload duration : 500 ms
Audio #2
ID : 2
Format : AC-3
Format/Info : Audio Coding 3
Mode extension : CM (complete main)
Format settings, Endianness : Big
Codec ID : 2000
Duration : 1h 19mn
Bit rate mode : Constant
Bit rate : 256 Kbps
Channel(s) : 2 channels
Channel positions : Front: L R
Sampling rate : 48.0 KHz
Bit depth : 16 bits
Compression mode : Lossy
Stream size : 146 MiB (10%)
Alignment : Split accross interleaves
Interleave, duration : 42 ms (1.00 video frame)
Interleave, preload duration : 500 ms

Скриншоты





Последний раз редактировалось: Бахтиер123 (2016-02-02 07:21), всего редактировалось 2 раз(а)

Создавать темы 02-Фев-2016 06:38

[Профиль]  [ЛС] 

Топик был перенесен из форума Фильмы за 2015 в форум Фильмы за 2014
ruhal

Создавать темы 02-Фев-2016 07:22

 

Star Line

Стаж: 4 года 2 месяца

Сообщений: 136

Симпатии: 26

Кто-нибудь даст докачать или нет? Уже неделю жду

Создавать темы 10-Мар-2016 20:41

[Профиль]  [ЛС] 
Показать сообщения:    
Ответить на тему

Текущее время: 18-Дек 10:05

Часовой пояс: UTC + 5



Вы не можете начинать темы
Вы не можете отвечать на сообщения
Вы не можете редактировать свои сообщения
Вы не можете удалять свои сообщения
Вы не можете голосовать в опросах
Вы не можете прикреплять файлы к сообщениям
Вы не можете скачивать файлы