Шпионский мост / Bridge of Spies (Стивен Спилберг) [2015, США, Индия, Германия, триллер, драма, биография, история, HDRip] [iTunes]

Ответить на тему
 

ruhal ®

Стаж: 2 года 8 месяцев

Сообщений: 1181

Симпатии: 1836

-Шпионский мост / Bridge of Spies- Страна: США, Индия, Германия
Жанр: триллер, драма, биография, история
Год выпуска: 2015
Продолжительность: 02:14:09
Перевод: Профессиональный (многоголосый закадровый) [iTunes]
Cубтитры: Вшитые русские на немецкую речь + на надписи-Режиссер: Стивен Спилберг-В ролях: Марк Райлэнс, Доменик Ломбардоззи, Виктор Верхак, Марк Фичера, Брайан Хатчинсон, Том Хэнкс, Джошуа Харто, Хенни Расселл, Ребека Брокмэн, Алан Алда-Описание: Действие фильма происходит на фоне серии реальных исторических событий и рассказывает о бруклинском адвокате Джеймсе Доноване, который оказывается в эпицентре холодной войны, когда ЦРУ отправляет его на практически невозможное задание — договориться об освобождении захваченного в СССР американского пилота самолета-разведчика U2.-Качество видео: HDRip
Формат видео: AVI
Видео: Xvid 720x304 23.976fps
Аудио: Dolby AC3 48000Hz 6ch 384kbps
-

MediaInfo

General
Complete name : E:\Films\Shp10HCki1.M0CT.2015.D.HDRip.1.46GB.avi
Format : AVI
Format/Info : Audio Video Interleave
File size : 1.45 GiB
Duration : 2h 21mn
Overall bit rate : 1 473 Kbps
Writing application : VirtualDubMod 1.5.10.3 | www.virtualdub-fr.org || (build 2550/release)
Writing library : VirtualDubMod build 2550/release
Video
ID : 0
Format : MPEG-4 Visual
Format profile : Advanced [email protected]
Format settings, BVOP : 2
Format settings, QPel : No
Format settings, GMC : No warppoints
Format settings, Matrix : Default (MPEG)
Codec ID : XVID
Codec ID/Hint : XviD
Duration : 2h 21mn
Bit rate : 1 080 Kbps
Width : 720 pixels
Height : 304 pixels
Display aspect ratio : 2.35:1
Frame rate : 23.976 fps
Color space : YUV
Chroma subsampling : 4:2:0
Bit depth : 8 bits
Scan type : Progressive
Compression mode : Lossy
Bits/(Pixel*Frame) : 0.206
Stream size : 1.07 GiB (73%)
Writing library : XviD 1.2.1 (UTC 2008-12-04)
Audio
ID : 1
Format : AC-3
Format/Info : Audio Coding 3
Mode extension : CM (complete main)
Format settings, Endianness : Big
Codec ID : 2000
Duration : 2h 21mn
Bit rate mode : Constant
Bit rate : 384 Kbps
Channel(s) : 6 channels
Channel positions : Front: L C R, Side: L R, LFE
Sampling rate : 48.0 KHz
Bit depth : 16 bits
Compression mode : Lossy
Delay relative to video : 1s 820ms
Stream size : 388 MiB (26%)
Alignment : Split accross interleaves
Interleave, duration : 42 ms (1.00 video frame)
Interleave, preload duration : 500 ms

Скриншот c названием фильма

Скриншоты



Создавать темы 02-Фев-2016 08:21

[Профиль]  [ЛС] 

hamilion

Стаж: 5 лет 3 месяца

Сообщений: 155

Симпатии: 14

жду на медия иств:)))

Создавать темы 03-Фев-2016 16:08

[Профиль]  [ЛС] 

m-mirobid

Стаж: 2 года 1 месяц

Сообщений: 1

Симпатии: 2

класный фильм отлично стивен спилберг

Создавать темы 23-Фев-2016 12:39

[Профиль]  [ЛС] 
Показать сообщения:    
Ответить на тему

Текущее время: 18-Дек 23:45

Часовой пояс: UTC + 5



Вы не можете начинать темы
Вы не можете отвечать на сообщения
Вы не можете редактировать свои сообщения
Вы не можете удалять свои сообщения
Вы не можете голосовать в опросах
Вы не можете прикреплять файлы к сообщениям
Вы не можете скачивать файлы