Открой глаза / Abre los ojos / Open your eyes (Алехандро Аменабар / Alejandro Amenabar) [1997, Испания, Франция, Италия, триллер, драма, детектив, BDRip] MVO (R5) + AVO (Карцев) + Original Spa + Sub (Rus, Eng)

Ответить на тему
 

IQBOT ®

Стаж: 6 лет 10 месяцев

Сообщений: 449

Симпатии: 81

Открой глаза / Abre los ojos / Open your eyes
Страна: Испания, Франция, Италия
Жанр: триллер, драма, детектив
Год выпуска: 1997
Продолжительность: 01:59:06
Перевод: Профессиональный (многоголосый, закадровый) R5
Оригинальная испанская дорожка
Авторский одноголосый П.Карцев (отдельно)
Cубтитры: русские, английские
Режиссер: Алехандро Аменабар / Alejandro Amenabar
В ролях: Пенелопа Крус, Эдуардо Норьега, Чете Лера, Феле Мартинес, Найва Нимри, Жерар Баррэ, Хорхе Де Хуан, Мигель Паленсуэла, Педро Мигель Мартинес, Ион Габелья
Описание: Сезар — красивый парень и богатый наследник, однажды влюбившись, уводит девушку у своего друга. И словно в наказание судьба сыграла с ним злую шутку: его лицо стало безобразным.
Но происходит странное: его прежняя жизнь не утрачена безвозвратно, иногда он по-прежнему красив и счастлив. Что это? Параллельные жизни или одна из них только сон?! Где теперь реальность?
Качество видео: BDRip
Формат видео: AVI
Видео: 704x384 (1.83:1), 24 fps, XviD build 66 ~1848 kbps avg, 0.28 bit/pixel
Аудио 1: 48 kHz, AC3 Dolby Digital, 3/2 (L,C,R,l,r) + LFE ch, ~384.00 kbps avg mvo
Аудио 2: 48 kHz, AC3 Dolby Digital, 3/2 (L,C,R,l,r) + LFE ch, ~384.00 kbps avg eng
Аудио 3: 48 kHz, AC3 Dolby Digital, 2/0 (L,R), ~192.00 kbps avg (отдельно) avo
Формат субтитров: softsub (SRT), отдельно

MediaInfo

General
Complete name : D:\Video\Otkroj.glaza.1997.DUAL.BDRip.XviD.AC3.-HQCLUB\Otkroj.glaza.1997.DUAL.BDRip.XviD.AC3.-HQCLUB.avi
Format : AVI
Format/Info : Audio Video Interleave
Format profile : OpenDML
File size : 2.18 GiB
Duration : 1h 59mn
Overall bit rate : 2 623 Kbps
Movie name : Открой глаза / Abre los ojos / Open Your Eyes (1997) BDRip
Director : The next
Writing application : VirtualDubMod 1.5.10.2 (build 2542/release)
Copyright : www.hqclub.net
Comment : 20.07.2015
Video
ID : 0
Format : MPEG-4 Visual
Format profile : Advanced [email protected]
Format settings, BVOP : Yes
Format settings, QPel : No
Format settings, GMC : No warppoints
Format settings, Matrix : Custom
Codec ID : XVID
Codec ID/Hint : XviD
Duration : 1h 59mn
Bit rate : 1 837 Kbps
Width : 704 pixels
Height : 384 pixels
Display aspect ratio : 1.85:1
Frame rate : 24.000 fps
Color space : YUV
Chroma subsampling : 4:2:0
Bit depth : 8 bits
Scan type : Progressive
Compression mode : Lossy
Bits/(Pixel*Frame) : 0.283
Stream size : 1.53 GiB (70%)
Writing library : XviD 66
Audio #1
ID : 1
Format : AC-3
Format/Info : Audio Coding 3
Mode extension : CM (complete main)
Format settings, Endianness : Big
Codec ID : 2000
Duration : 1h 59mn
Bit rate mode : Constant
Bit rate : 384 Kbps
Channel(s) : 6 channels
Channel positions : Front: L C R, Side: L R, LFE
Sampling rate : 48.0 KHz
Bit depth : 16 bits
Compression mode : Lossy
Stream size : 327 MiB (15%)
Alignment : Split accross interleaves
Interleave, duration : 42 ms (1.00 video frame)
Interleave, preload duration : 500 ms
Audio #2
ID : 2
Format : AC-3
Format/Info : Audio Coding 3
Mode extension : CM (complete main)
Format settings, Endianness : Big
Codec ID : 2000
Duration : 1h 59mn
Bit rate mode : Constant
Bit rate : 384 Kbps
Channel(s) : 6 channels
Channel positions : Front: L C R, Side: L R, LFE
Sampling rate : 48.0 KHz
Bit depth : 16 bits
Compression mode : Lossy
Stream size : 327 MiB (15%)
Alignment : Split accross interleaves
Interleave, duration : 42 ms (1.00 video frame)
Interleave, preload duration : 500 ms

Скриншот c названием фильма

Скриншоты



Интересные факты

    • В 2001 году режиссер Кэмерон Кроу снял ремейк под названием «Ванильное небо». В нем Пенелопа Крус сыграла эту же роль.
    • Алехандро Аменабар задумал сценарий фильма после кошмаров, которые он испытывал, когда болел гриппом.
    • Алехандро Аменабар появляется в кадре, проходя вместе с двумя другими людьми мимо Сесара в туалете дискотеки.

Создавать темы 02-Фев-2016 11:17

[Профиль]  [ЛС] 
Показать сообщения:    
Ответить на тему

Текущее время: 23-Ноя 06:40

Часовой пояс: UTC + 5



Вы не можете начинать темы
Вы не можете отвечать на сообщения
Вы не можете редактировать свои сообщения
Вы не можете удалять свои сообщения
Вы не можете голосовать в опросах
Вы не можете прикреплять файлы к сообщениям
Вы не можете скачивать файлы