Срочно выйду замуж (Сергей Чекалов) [2015, комедия, мелодрама, WEB-DLRip]

Ответить на тему
 

inkus ®

Стаж: 7 лет 3 месяца

Сообщений: 50

Симпатии: 39

Срочно выйду замуж
Жанр: комедия, мелодрама
Год выпуска: 2015
Продолжительность: 01:43:33
Режиссёр: Сергей Чекалов
В ролях: Юлия Ковальчук, Алексей Чумаков, Раиса Рязанова, Сергей Бурунов, Екатерина Маликова, Роман Мадянов, Нонна Гришаева, Анатолий Белый, Алика Смехова, Вячеслав Гришечкин
Описание: Главная героиня сериала – молодая девушка по имени Женя. Она амбициозная журналистка, и очень много времени уделяет своей карьере. Вот только с руководящей должностью у нее никак не складывается. Однажды его величество случай преподносит Жене шанс стать главным редактором журнала. Девушка безумно счастлива, ведь как раз об этом она и мечтала. Но поскольку журнал семейный, главным условием для девушки выступает то, что она должна быть замужем. Теперь она озабочена лишь одной проблемой миллионов девушек – выйти замуж. В этом ей поможет светский фотограф Стас, у него много знакомств, и он точно сможет помочь Жене найти подходящую кандидатуру. У нее есть всего месяц, чтобы найти мужа, в противном случае она лишится заветной должности. Но поиски мужа и частое времяпровождение со Стасом дали свои результаты. Они оба начали понимать, что между ними нечто большее, чем дружба. Смогут ли молодые люди быть вместе, и поймет ли Женя, что то, что она так долго искала, находится совсем близко?..
Качество видео: WEB-DLRip
Формат видео: AVI
Видео: XviD, 1754 kb/s, 720x304
Аудио: AC3, 384 kb/s, (6 ch)

MediaInfo

Общее
Полное имя : F:\1 мои раздачи торент\SP04H0.Viydu.zamush.2015.O.WEB-DLRip.avi
Формат : AVI
Формат/Информация : Audio Video Interleave
Размер файла : 1,46 Гбайт
Продолжительность : 1 ч. 43 м.
Общий поток : 2020 Кбит/сек
Программа кодирования : VirtualDubMod 1.5.10.3 | www.virtualdub-fr.org || (build 2550/release)
Библиотека кодирования : VirtualDubMod build 2550/release
Видео
Идентификатор : 0
Формат : MPEG-4 Visual
Профиль формата : Advanced [email protected]
Параметр BVOP формата : 2
Параметр QPel формата : Нет
Параметр GMC формата : Без точки перехода
Параметр матрицы формата : Default (MPEG)
Идентификатор кодека : XVID
Идентификатор кодека/Подсказка : XviD
Продолжительность : 1 ч. 43 м.
Битрейт : 1626 Кбит/сек
Ширина : 720 пикселей
Высота : 304 пикселя
Соотношение сторон : 2,35:1
Частота кадров : 25,000 кадров/сек
Цветовое пространство : YUV
Субдискретизация насыщенности : 4:2:0
Битовая глубина : 8 бит
Тип развёртки : Прогрессивная
Метод сжатия : С потерями
Бит/(Пиксели*Кадры) : 0.297
Размер потока : 1,18 Гбайт (81%)
Библиотека кодирования : XviD 1.2.1 (UTC 2008-12-04)
Аудио
Идентификатор : 1
Формат : AC-3
Формат/Информация : Audio Coding 3
Расширение режима : CM (complete main)
Параметр Endianness формата : Big
Идентификатор кодека : 2000
Продолжительность : 1 ч. 43 м.
Вид битрейта : Постоянный
Битрейт : 384 Кбит/сек
Каналы : 6 каналов
Расположение каналов : Front: L C R, Side: L R, LFE
Частота : 48,0 КГц
Битовая глубина : 16 бит
Метод сжатия : С потерями
Размер потока : 284 Мбайт (19%)
Выравнивание : Разделение по промежуткам
Продолжительность промежутка : 40 мс. (1,00 видеокадр)
Время предзагрузки промежутка : 500 мс.

Скриншоты





Последний раз редактировалось: inkus (2016-02-02 18:37), всего редактировалось 1 раз

Создавать темы 02-Фев-2016 15:17

[Профиль]  [ЛС] 
Показать сообщения:    
Ответить на тему

Текущее время: 21-Авг 04:15

Часовой пояс: UTC + 5



Вы не можете начинать темы
Вы не можете отвечать на сообщения
Вы не можете редактировать свои сообщения
Вы не можете удалять свои сообщения
Вы не можете голосовать в опросах
Вы не можете прикреплять файлы к сообщениям
Вы не можете скачивать файлы